Сегодня идет свободное скачивание без начисления Download

Круг (1972) SATRip

Ответить на тему
 
Автор
Сообщение

UndegraundMen ®

Стаж: 5 лет 9 месяцев

Сообщений: 25860

Торрент-статистика

Пост 28-Апр-2013 00:06

[Цитировать]

Круг (1972) SATRip- Русское название: Круг
Год выпуска: 1972
Жанр: Детектив
Производство: Киностудия "Ленфильм"
Описание фильма:
Продолжение фильма «Два билета на дневной сеанс». Капитан милиции Алёшин ведёт расследование дела, связанного с хищением опиума на складе химзавода. Всё говорит о том, что преступника надо искать среди сотрудников предприятия...
Режиссер: Герберт Раппапорт
Актеры: Александр Збруев, Игорь Горбачев, Петр Горин, Алексей Кожевников, Армен Джигарханян, Евгения Уралова, Светлана Коркошко, Николай Рыбников, Светлана Немоляева, Роман Громадский, Пантелеймон Крымов, Альгимантас Масюлис
Продолжительность: 01:28:44

Видеокодек: Xvid
Битрейт видео: ~2300 kb/s
Размер кадра: 704 x 528
Качество видео: SATRip
Аудиокодек: MP3 2.0
Битрейт аудио: 192 kb/s

Техданные

Общее
Полное имя : Круг.1972.SATRip.avi
Формат : AVI
Формат/Информация : Audio Video Interleave
Размер файла : 1,46 Гбайт
Продолжительность : 1 ч. 28 м.
Общий поток : 2350 Кбит/сек
Программа кодирования : VirtualDubMod 1.5.10.2 (build 2540/release)
Примечание : Rip by iriston
Видео
Идентификатор : 0
Формат : MPEG-4 Visual
Профиль формата : Advanced [email protected]
Параметр BVOP формата : 1
Параметр QPel формата : Нет
Параметр GMC формата : Без точки перехода
Параметр матрицы формата : Выборочная
Идентификатор кодека : XVID
Идентификатор кодека/Подсказка : XviD
Продолжительность : 1 ч. 28 м.
Битрейт : 2148 Кбит/сек
Ширина : 704 пикселя
Высота : 528 пикселей
Соотношение сторон : 4:3
Частота кадров : 25,000 кадров/сек
Цветовое пространство : YUV
Субдискретизация насыщенности : 4:2:0
Битовая глубина : 8 бит
Тип развёртки : Прогрессивная
Метод сжатия : С потерями
Бит/(Пиксели*Кадры) : 0.231
Размер потока : 1,33 Гбайт (91%)
Библиотека кодирования : XviD 1.2.1 (UTC 2008-12-04)
Аудио
Идентификатор : 1
Формат : MPEG Audio
Версия формата : Version 1
Профиль формата : Layer 3
Идентификатор кодека : 55
Идентификатор кодека/Подсказка : MP3
Продолжительность : 1 ч. 28 м.
Вид битрейта : Постоянный
Битрейт : 192 Кбит/сек
Каналы : 2 канала
Частота : 48,0 КГц
Метод сжатия : С потерями
Размер потока : 122 Мбайт (8%)
Выравнивание : Соединение по промежуткам
Продолжительность промежутка : 40 мс. (1,00 видеокадр)
Время предзагрузки промежутка : 504 мс.
Библиотека кодирования : LAME3.98r
Настройки программы : -m s -V 4 -q 2 -lowpass 18.6 -b 192
Кадры:          Время раздачи: С 13:00 до 21:00 (до 5 скачавших)Приятного просмотра!
Вне форума [Профиль] [ЛС]
Показать сообщения:    
Ответить на тему

Текущее время: Сегодня 14:58

Часовой пояс: GMT + 3



Вы не можете начинать темы
Вы не можете отвечать на сообщения
Вы не можете редактировать свои сообщения
Вы не можете удалять свои сообщения
Вы не можете голосовать в опросах
Вы не можете прикреплять файлы к сообщениям
Вы не можете скачивать файлы