Today is a free download without charge Download

Discovery. Сын леопарда / The Leopard Son (1996) HDTV [1080i]

Reply to topic
 
Author
Message

UndegraundMen ®

Longevity: 7 years 7 months

Posts: 25145

Торрент-статистика

Post 28-Apr-2013 00:06

[Quote]

Discovery. Сын леопарда / The Leopard Son (1996) HDTV [1080i]- Русское название: Discovery. Сын леопарда
Оригинальное название: The Leopard Son
Страна: США
Режиссер / Телекомпания: Хьюго Ван Лавик / Nature Conservation Films BV
Год выпуска: 1996
Жанр: документальный
Описание: Предлагаемый Вашему вниманию новый изумительный фильм от Discovery в очередной раз доказывает, что отдельные документальные фильмы, постановщиком которых выступает сама мать-природа, гораздо интереснее и зрелищней, чем иные, насыщенные трюками и спецэффектами блокбастеры. «Сын Леопарда», новое творение знаменитого исследователя Хуго Ван Лавика, яркое тому подтверждение. Этот знаменитый учёный посвятил всю свою жизнь исследованию африканского континента. Уникальная картина, съёмки которой длились целых три года, рассказывает подлинную историю семьи свирепых хищников. 35 миллиметровая плёнка запечатлела поразительную и неповторимую историю взаимоотношений самки леопарда и её единственного сына. На ваших глазах, маленький очаровательный малыш-леопард, напоминающий своими повадками обыкновенного домашнего котёнка, превратится в грозного и безжалостного повелителя саванн.
Продолжительность: 01:22:14
Перевод: Одноголосый закадровый (профессиональный)
Формат файла: TS
Видеокодек: MPEG-TS
Битрейт видео: ~ 11,4 Мбит/с
Размер кадра: 1980 x 1080
Качество видео: HDTV [1080i]
Аудио:
1. [english] АС3, 6 ch, 448 Кбит/с
2. [русский] АС3, 6 ch, 384 Кбит/с

MediaInfo

Общее
Идентификатор : 1 (0x1)
Полное имя : A:\Релизы\The.Leopard.son.(1996).HDTV.1080i.ts
Формат : MPEG-TS
Размер файла : 7,40 Гбайт
Продолжительность : 1 ч. 22 м.
Режим общего битрейта : Переменный
Общий поток : 12,9 Мбит/сек
Максимальный общий битрейт : 35,5 Мбит/сек
Видео
Идентификатор : 4113 (0x1011)
Идентификатор меню : 1 (0x1)
Формат : MPEG Video
Версия формата : Version 2
Профиль формата : [email protected]
Параметр BVOP формата : Нет
Параметр матрицы формата : Выборочная
Идентификатор кодека : 2
Продолжительность : 1 ч. 22 м.
Вид битрейта : Переменный
Битрейт : 11,4 Мбит/сек
Максимальный битрейт : 38,8 Мбит/сек
Ширина : 1920 пикселей
Высота : 1080 пикселей
Соотношение сторон : 16:9
Частота кадров : 29,970 кадров/сек
Цветовое пространство : YUV
Субдискретизация насыщенности : 4:2:0
Битовая глубина : 8 бит
Тип развёртки : Чересстрочная
Порядок развёртки : Верхнее поле первое
Метод сжатия : С потерями
Бит/(Пиксели*Кадры) : 0.183
Размер потока : 6,55 Гбайт (89%)
Аудио #1
Идентификатор : 4352 (0x1100)
Идентификатор меню : 1 (0x1)
Формат : AC-3
Формат/Информация : Audio Coding 3
Идентификатор кодека : 129
Продолжительность : 1 ч. 22 м.
Битрейт : 448 Кбит/сек
Каналы : 5 каналов
Частота : 48,0 КГц
Метод сжатия : С потерями
Размер потока : 264 Мбайт (3%)
Язык : Russian
Аудио #2
Идентификатор : 4353 (0x1101)
Идентификатор меню : 1 (0x1)
Формат : AC-3
Формат/Информация : Audio Coding 3
Идентификатор кодека : 129
Продолжительность : 1 ч. 22 м.
Битрейт : 384 Кбит/сек
Каналы : 5 каналов
Частота : 48,0 КГц
Метод сжатия : С потерями
Размер потока : 226 Мбайт (3%)
Язык : English
Скриншоты:
         
         
Пожалуйста, не уходите с раздачи - помогите докачать другим. Если понравился релиз - жмите кнопку "Спасибо"!
Other forum [Profile] [PM]
Display posts from previous:    
Reply to topic

The time now is: Today 08:00

All times are GMT + 3 Hours



You cannot post new topics in this forum
You cannot reply to topics in this forum
You cannot edit your posts in this forum
You cannot delete your posts in this forum
You cannot vote in polls in this forum
You cannot attach files in this forum
You cannot download files in this forum