Today is a free download without charge Download

Asura / Асура [2012, MV] BDRip 692p raw+rus

Reply to topic
 
Author
Message

UndegraundMen ®

Longevity: 8 years 11 months

Posts: 25145

Торрент-статистика

Post 28-Apr-2013 00:06

[Quote]

アシュラ / Asura / Асура- Жанр: Драма, история
Тип: Полнометражный фильм
Продолжительность: 75 мин.
Дата премьеры / период выхода: 04.06.2012
Режиссер: Сато Кэйити
Автор оригинала: Акияма Джордж
Производство/студия:

Качество видео: BDRip
Видео: AVC, 1280x692, 23,976 кадра/сек, ~4778 кбит/с
Аудио*: AC3, 48 КГц, 6 ch, ~448 кбит/с Звук: русский (любительский многолосый, закадровый).
Озвучка: Cuba77, Lonely Dragon, Nika Lenina, Oslikt, Shina, Pandora, Balfor
Аудио**: AC3, 48 КГц, 6 ch, ~640 кбит/с Звук: японский.
Тип субтитров: русские в контейнере. Перевод: CAMELIASUBS
Описание: Он родился в тяжелое время, голода и разрухи, и выжить можно было лишь став настоящим зверем. Но времена изменились, и человек должен научиться меняться, теперь чтобы жить в новом мире, он снова должен стать человеком, но вот только сделать это куда сложнее, чем выжить среди руин целого государства.

MediaInfo

Код:
Общее
Уникальный идентификатор                 : 228835195264753293680398098690545834290 (0xAC280E34871653D485A360655B485932)
Полное имя                               : R:\torrent\Asura\Asura.mkv
Формат                                   : Matroska
Версия формата                           : Version 2
Размер файла                             : 3,15 Гбайт
Продолжительность                        : 1 ч. 15 м.
Общий поток                              : 5985 Кбит/сек
Дата кодирования                         : UTC 2013-04-27 07:02:41
Программа кодирования                    : mkvmerge v5.8.0 ('No Sleep / Pillow') built on Sep  2 2012 15:37:04
Библиотека кодирования                   : libebml v1.2.3 + libmatroska v1.3.0
Видео
Идентификатор                            : 1
Формат                                   : AVC
Формат/Информация                        : Advanced Video Codec
Профиль формата                          : [url=mailto:[email protected]][email protected][/url]
Параметр CABAC формата                   : Да
Параметр ReFrames формата                : 9 кадров
Режим смешивания                         : Header stripping
Идентификатор кодека                     : V_MPEG4/ISO/AVC
Продолжительность                        : 1 ч. 15 м.
Битрейт                                  : 4778 Кбит/сек
Ширина                                   : 1280 пикселей
Высота                                   : 692 пикселя
Соотношение сторон                       : 1,85:1
Режим частоты кадров                     : Постоянный
Частота кадров                           : 23,976 кадра/сек
Цветовое пространство                    : YUV
Субдискретизация насыщенности            : 4:2:0
Битовая глубина                          : 8 бит
Тип развёртки                            : Прогрессивная
Бит/(Пиксели*Кадры)                      : 0.225
Размер потока                            : 2,52 Гбайт (80%)
Заголовок                                : Asura (2012)
Библиотека кодирования                   : x264 core 130 r2273kMod b3065e6
Настройки программы                      : cabac=1 / ref=9 / deblock=1:-3:-3 / analyse=0x3:0x113 / me=umh / subme=10 / psy=1 / fade_compensate=0.00 / psy_rd=1.05:0.00 / mixed_ref=1 / me_range=16 / chroma_me=1 / trellis=2 / 8x8dct=1 / cqm=0 / deadzone=21,11 / fast_pskip=0 / chroma_qp_offset=-2 / threads=6 / lookahead_threads=1 / sliced_threads=0 / nr=0 / decimate=0 / interlaced=0 / bluray_compat=0 / constrained_intra=0 / bframes=10 / b_pyramid=2 / b_adapt=2 / b_bias=0 / direct=3 / weightb=1 / open_gop=0 / weightp=2 / keyint=250 / keyint_min=23 / scenecut=40 / intra_refresh=0 / rc_lookahead=60 / rc=crf / mbtree=0 / crf=17.0000 / qcomp=0.80 / qpmin=0 / qpmax=30 / qpstep=4 / vbv_maxrate=20000 / vbv_bufsize=15000 / crf_max=0.0 / nal_hrd=none / ip_ratio=1.20 / pb_ratio=1.10 / aq=1:1.20
Язык                                     : Японский
Default                                  : Нет
Forced                                   : Нет
Аудио #1
Идентификатор                            : 2
Формат                                   : AC-3
Формат/Информация                        : Audio Coding 3
Расширение режима                        : CM (complete main)
Параметр Endianness формата              : Big
Режим смешивания                         : Header stripping
Идентификатор кодека                     : A_AC3
Продолжительность                        : 1 ч. 15 м.
Вид битрейта                             : Постоянный
Битрейт                                  : 448 Кбит/сек
Каналы                                   : 6 каналов
Расположение каналов                     : Front: L C R, Side: L R, LFE
Частота                                  : 48,0 КГц
Битовая глубина                          : 16 бит
Метод сжатия                             : С потерями
Размер потока                            : 242 Мбайт (7%)
Заголовок                                : Cuba77, Lonely Dragon, Nika Lenina, Oslikt, Shina, Pandora, Balfor
Язык                                     : Русский
Default                                  : Да
Forced                                   : Да
Аудио #2
Идентификатор                            : 3
Формат                                   : AC-3
Формат/Информация                        : Audio Coding 3
Расширение режима                        : CM (complete main)
Параметр Endianness формата              : Big
Режим смешивания                         : Header stripping
Идентификатор кодека                     : A_AC3
Продолжительность                        : 1 ч. 15 м.
Вид битрейта                             : Постоянный
Битрейт                                  : 640 Кбит/сек
Каналы                                   : 6 каналов
Расположение каналов                     : Front: L C R, Side: L R, LFE
Частота                                  : 48,0 КГц
Битовая глубина                          : 16 бит
Метод сжатия                             : С потерями
Размер потока                            : 345 Мбайт (11%)
Заголовок                                : Original
Язык                                     : Японский
Default                                  : Нет
Forced                                   : Нет
Текст
Идентификатор                            : 4
Формат                                   : ASS
Идентификатор кодека                     : S_TEXT/ASS
Идентификатор кодека/Информация          : Advanced Sub Station Alpha
Метод сжатия                             : Без потерь
Заголовок                                : CAMELIASUBS
Язык                                     : Русский
Default                                  : Да
Forced                                   : Да
Меню
00:00:00.000                             : en:Chapter 1
00:06:17.085                             : en:Chapter 2
00:13:42.822                             : en:Chapter 3
00:21:52.478                             : en:Chapter 4
00:33:08.737                             : en:Chapter 5
00:44:06.936                             : en:Chapter 6
00:54:02.406                             : en:Chapter 7
01:09:40.676                             : en:Chapter 8
01:15:10.506                             : en:Chapter 9
Ссылки:
Ani-DB ::: World Art
Скриншоты:
         
         
Время раздачи: По мере возможности
Other forum [Profile] [PM]
Display posts from previous:    
Reply to topic

The time now is: Today 02:06

All times are GMT + 3 Hours



You cannot post new topics in this forum
You cannot reply to topics in this forum
You cannot edit your posts in this forum
You cannot delete your posts in this forum
You cannot vote in polls in this forum
You cannot attach files in this forum
You cannot download files in this forum