Today is a free download without charge Download

Соблазнитель / Kokowääh (Тиль Швайгер / Til Schweiger) [2011, мелодрама, комедия, BDRip 1080p]

Reply to topic
 
Author
Message

Delia ®

Gender:

Longevity: 10 years

Posts: 1821

Торрент-статистика

Post 27-Apr-2013 12:10

[Quote]

-Соблазнитель
Kokowaah---
Год выпуска: 2010
Страна: Германия
Жанр: мелодрама, комедия
Продолжительность: 02:06:34
Перевод: Профессиональный (дублированный)
Субтитры: Russian (UTF-8), English (UTF-8)
Режиссер: Тиль Швайгер
Сценарий: Бела Яржик, Тиль Швайгер
Продюсер: Тиль Швайгер, Томас Циклер, Юлия Эцельмюллер, ...
Оператор: Кристоф Валь
Композитор: Дирк Райхардт, Мирко Шаффер, Мартин Тодшаров
Художник: Силке Бур, Аня Мюллер, Габриэла Роймер, ...
Монтаж: Константин фон Сельд

В ролях: Тиль Швайгер / Til Schweiger (Henry), Эмма Швайгер / Emma Schweiger (Magdalena), Жасмин Герат / Jasmin Gerat (Katharina), Самюэль Финци / Samuel Finzi (Tristan), Нуман Акар / Numan Acar (Arbeiter), Мерет Беккер / Meret Becker (Charlotte), Анна-Софи Брист / Anne-Sophie Briest (Mutter Supermarkt), Анна Юлия Капфельшпергер / Anna Julia Kapfelsperger (Bine), Фридерике Кемптер / Friederike Kempter (Agentin), Торстен Кюнстлер / Torsten Kunstler (Kurier)
Описание: Писатель Генри страдает от неразделённой любви и творческого кризиса. Как снег на голову на него сваливается предложение о работе над сценарием киноленты, в которой примет участие его бывшая подруга Катарина, в которую он влюблён и поныне. Возникает надежда на второй шанс, но появление восьмилетней Магдалены всё меняет.

Рейтинг MPAA: Детям до 13 лет просмотр не желателен
Рейтинг ВКИП: для детей старше 16 лет

Качество: BDRip
Формат: MKV
Видео кодек: H.264 (AVC)
Аудио кодеk: AC3
Видео: 1920x816 (2.35:1), 23.976 fps, AVC, 8 068 Kbps
Аудио: AC3, 448 Kbps, 48.0 KHz, 6 ch
Аудио #2: AC3, 448 Kbps, 48.0 KHz, 6 ch


--

МедиаИнфо

Код:
General
Unique ID                                : 230562355625908408474343024859788665610 (0xAD74B1C91A63EC7FA05A86FDD6FCE30A)
Complete name                            : KOKOWAAH(2011)1080p.F-HD.mkv
Format                                   : Matroska
Format version                           : Version 4 / Version 2
File size                                : 7.92 GiB
Duration                                 : 2h 6mn
Overall bit rate                         : 8 962 Kbps
Encoded date                             : UTC 2013-04-27 08:15:00
Writing application                      : mkvmerge v6.1.0 ('Old Devil') built on Mar  2 2013 14:32:37
Writing library                          : libebml v1.3.0 + libmatroska v1.4.0
Video
ID                                       : 1
Format                                   : AVC
Format/Info                              : Advanced Video Codec
Format profile                           : [email protected]
Format settings, CABAC                   : Yes
Format settings, ReFrames                : 4 frames
Codec ID                                 : V_MPEG4/ISO/AVC
Duration                                 : 2h 6mn
Bit rate                                 : 8 068 Kbps
Width                                    : 1 920 pixels
Height                                   : 816 pixels
Display aspect ratio                     : 2.35:1
Frame rate mode                          : Constant
Frame rate                               : 23.976 fps
Color space                              : YUV
Chroma subsampling                       : 4:2:0
Bit depth                                : 8 bits
Scan type                                : Progressive
Bits/(Pixel*Frame)                       : 0.215
Stream size                              : 6.97 GiB (88%)
Writing library                          : x264 core 130 r2273kMod b3065e6
Encoding settings                        : cabac=1 / ref=4 / deblock=1:-3:-3 / analyse=0x3:0x113 / me=umh / subme=11 / psy=1 / fade_compensate=0.00 / psy_rd=0.90:0.00 / mixed_ref=1 / me_range=48 / chroma_me=1 / trellis=2 / 8x8dct=1 / cqm=0 / deadzone=21,11 / fast_pskip=0 / chroma_qp_offset=-2 / threads=6 / lookahead_threads=1 / sliced_threads=0 / nr=0 / decimate=1 / interlaced=0 / bluray_compat=0 / constrained_intra=0 / bframes=8 / b_pyramid=2 / b_adapt=2 / b_bias=0 / direct=3 / weightb=1 / open_gop=0 / weightp=2 / keyint=250 / keyint_min=23 / scenecut=40 / intra_refresh=0 / rc_lookahead=40 / rc=2pass / mbtree=0 / bitrate=8068 / ratetol=1.0 / qcomp=0.75 / qpmin=0 / qpmax=69 / qpstep=4 / cplxblur=20.0 / qblur=0.5 / vbv_maxrate=50000 / vbv_bufsize=62500 / nal_hrd=none / ip_ratio=1.40 / pb_ratio=1.30 / aq=1:0.70
Language                                 : English
Default                                  : Yes
Forced                                   : No
Color primaries                          : BT.709
Transfer characteristics                 : BT.709
Matrix coefficients                      : BT.709
Audio #1
ID                                       : 2
Format                                   : AC-3
Format/Info                              : Audio Coding 3
Mode extension                           : CM (complete main)
Format settings, Endianness              : Big
Codec ID                                 : A_AC3
Duration                                 : 2h 6mn
Bit rate mode                            : Constant
Bit rate                                 : 448 Kbps
Channel(s)                               : 6 channels
Channel positions                        : Front: L C R, Side: L R, LFE
Sampling rate                            : 48.0 KHz
Bit depth                                : 16 bits
Compression mode                         : Lossy
Stream size                              : 406 MiB (5%)
Language                                 : Russian
Default                                  : Yes
Forced                                   : No
Audio #2
ID                                       : 3
Format                                   : AC-3
Format/Info                              : Audio Coding 3
Mode extension                           : CM (complete main)
Format settings, Endianness              : Big
Codec ID                                 : A_AC3
Duration                                 : 2h 6mn
Bit rate mode                            : Constant
Bit rate                                 : 448 Kbps
Channel(s)                               : 6 channels
Channel positions                        : Front: L C R, Side: L R, LFE
Sampling rate                            : 48.0 KHz
Bit depth                                : 16 bits
Compression mode                         : Lossy
Stream size                              : 406 MiB (5%)
Language                                 : German
Default                                  : No
Forced                                   : No
Text #1
ID                                       : 4
Format                                   : UTF-8
Codec ID                                 : S_TEXT/UTF8
Codec ID/Info                            : UTF-8 Plain Text
Language                                 : Russian
Default                                  : No
Forced                                   : No
Text #2
ID                                       : 5
Format                                   : UTF-8
Codec ID                                 : S_TEXT/UTF8
Codec ID/Info                            : UTF-8 Plain Text
Language                                 : English
Default                                  : No
Forced                                   : No
Menu
00:00:00.000                             : en:00:00:00.000
00:12:18.028                             : en:00:12:18.028
00:18:56.677                             : en:00:18:56.677
00:27:52.045                             : en:00:27:52.045
00:35:32.588                             : en:00:35:32.588
00:41:00.332                             : en:00:41:00.332
00:50:42.873                             : en:00:50:42.873
00:56:55.703                             : en:00:56:55.703
01:02:21.487                             : en:01:02:21.487
01:09:03.180                             : en:01:09:03.180
01:17:44.368                             : en:01:17:44.368
01:27:07.347                             : en:01:27:07.347
01:39:57.449                             : en:01:39:57.449
01:46:11.656                             : en:01:46:11.656
01:56:57.135                             : en:01:56:57.135

Знаете ли Вы, что...

★ Во время съемок необходимо было соблюдать закон, согласно которому Эмма Швайгер могла работать не больше 3 часов в день.
★ Школа маленькой Магдалены в фильме на самом деле — это административное здание в квартале особняков Потсдама, в котором 20 лет назад размещалась русская армия.

Скриншоты

     
     

_________________
Человек – это канат, натянутый между животным и сверхчеловеком, – канат над пропастью.
В человеке ценно то, что он мост, а не цель. Фридрих Ницше
Other forum [Profile] [PM]
Display posts from previous:    
Reply to topic

The time now is: Today 11:07

All times are GMT + 3 Hours



You cannot post new topics in this forum
You cannot reply to topics in this forum
You cannot edit your posts in this forum
You cannot delete your posts in this forum
You cannot vote in polls in this forum
You cannot attach files in this forum
You cannot download files in this forum