Today is a free download without charge Download

Ведьмы страны Оз / The Witches of Oz (Ли Скотт) [2011 г., фэнтези, боевик, комедия, DVD9]|«Вольга»|

Reply to topic
 
Author
Message

Theseus ®

Gender:

Longevity: 8 years 5 months

Posts: 2053

Торрент-статистика

Post 22-Jul-2011 13:59

[Quote]

-Ведьмы страны Оз / The Witches of Oz- Год выпуска: 2011
Страна: США
Жанр: фэнтези, боевик, комедия
Продолжительность: 02:46:21
Перевод: Профессиональный (многоголосый, закадровый) [лицензия]
Режиссер: Ли Скотт
В ролях: Шон Эстин, Билли Бойд, Джеффри Комбс, Brionne Davis, Росс Дегроу, Chris Dell'Armo, Монти Доминге, Лиз Дуглас, Росс Эдгар, Ashley Blythe Ellington-Описание: Дороти Гейл — простая девушка, живущая со своим дядей Генри в Канзасе. В свободное время она пишет книги для детей о выдуманной ее дедом стране Оз. Жизнь Дороти резко меняется, когда ее приглашают в Нью-Йорк для презентации своих книг. Для нее здесь все незнакомо и странно. Неожиданно Дороти понимает, что рассказы деда о чудесах страны Оз и ее персонажах очень и очень… реальны.-Качество: DVD9 («Вольга»)
Формат: DVD-Video
Видео кодек: MPEG2
Аудио кодек: AC3
Видео: PAL 16:9 (720x576(0.567)) MPEG Video, 25,000 кадр/сек, 5880 Кбит/сек
Аудио 1: 48 kHz, AC3 Dolby Digital, 3/2 (L,C,R,l,r) + LFE ch, ~256 kbps |Русский профессиональный (многоголосый, закадровый)|
Аудио 2: 48 kHz, AC3 Dolby Digital, 3/2 (L,C,R,l,r) + LFE ch, ~256 kbps |Английский (оригинал)|
Cубтитры: русские- -

DVDInfo

Size: 7.42 Gb ( 7 782 198 KBytes ) - DVD-9
Enabled regions: 1, 2, 3, 4, 5, 6, 7, 8
VTS_01 :
Play Length: 00:00:10
Video: PAL 16:9 (720x576) VBR, Auto Pan&Scan, Auto Letterboxed
VTS_02 :
Play Length: 00:00:06
Video: PAL 16:9 (720x576) VBR, Auto Pan&Scan, Auto Letterboxed
VTS_03 :
Play Length: 01:25:19
Video: PAL 16:9 (720x576) VBR, Auto Pan&Scan, Auto Letterboxed
Audio:
Russian (Dolby AC3, 6 ch)
English (Dolby AC3, 6 ch)
Subtitles:
Not specified
Not specified
VTS_04 :
Play Length: 01:21:02
Video: PAL 16:9 (720x576) VBR, Auto Pan&Scan, Auto Letterboxed
Audio:
Russian (Dolby AC3, 6 ch)
English (Dolby AC3, 6 ch)
Subtitles:
Not specified
Not specified
Menu Video:
PAL 16:9 (720x576) VBR
Auto Pan&Scan, Auto Letterboxed
Menu Subtitles:
Not specified
Menu Russian Language Unit :
Root Menu

MediaInfo

Общее
Полное имя : D:\Vedmi.strani.OZ.2011.DVD-9\VIDEO_TS\VTS_03_1.VOB
Формат : MPEG-PS
Размер файла : 1024 Мбайт
Продолжительность : 21 м.
Общий поток : 6522 Кбит/сек
Видео
Идентификатор : 224 (0xE0)
Формат : MPEG Video
Версия формата : Version 2
Профиль формата : [email protected]
Параметр BVOP формата : Да
Параметр матрицы формата : Выборочная
Параметры GOP формата : M=3, N=15
Продолжительность : 21 м.
Вид битрейта : Переменный
Битрейт : 5880 Кбит/сек
Номинальный битрейт : 9000 Кбит/сек
Ширина : 720 пикс.
Высота : 576 пикс.
Соотношение сторон : 16:9
Частота кадров : 25,000 кадр/сек
Стандарт вещания : PAL
Цветовое пространство : YUV
Подвыборка цветности : 4:2:0
Битовая глубина : 8 бит
Тип развёртки : Чересстрочная
Порядок развёртки : Верхнее поле первое
Метод сжатия : С потерями
Бит/(Пиксели*Кадры) : 0.567
Размер потока : 923 Мбайт (90%)
Аудио #1
Идентификатор : 189 (0xBD)-128 (0x80)
Формат : AC-3
Формат/Информация : Audio Coding 3
Расширение режима : CM (complete main)
Режим смешивания : DVD-Video
Продолжительность : 21 м.
Вид битрейта : Постоянный
Битрейт : 256 Кбит/сек
Каналы : 6 каналов
Расположение каналов : Front: L C R, Side: L R, LFE
Частота : 48,0 КГц
Битовая глубина : 16 бит
Метод сжатия : С потерями
Размер потока : 40,2 Мбайт (4%)
Аудио #2
Идентификатор : 189 (0xBD)-129 (0x81)
Формат : AC-3
Формат/Информация : Audio Coding 3
Расширение режима : CM (complete main)
Режим смешивания : DVD-Video
Продолжительность : 21 м.
Вид битрейта : Постоянный
Битрейт : 256 Кбит/сек
Каналы : 6 каналов
Расположение каналов : Front: L C R, Side: L R, LFE
Частота : 48,0 КГц
Битовая глубина : 16 бит
Метод сжатия : С потерями
Размер потока : 40,2 Мбайт (4%)
Текст #1
Идентификатор : 189 (0xBD)-32 (0x20)
Формат : RLE
Формат/Информация : Run-length encoding
Режим смешивания : DVD-Video
Задержка видео : 2 с. 320 мс.
Текст #2
Идентификатор : 189 (0xBD)-33 (0x21)
Формат : RLE
Формат/Информация : Run-length encoding
Режим смешивания : DVD-Video
Продолжительность : 21 м.
Задержка видео : 2 с. 320 мс.

Трейлер (engl)

-

Скриншоты меню

     

Скриншоты фильма

         
- -

_________________
Other forum [Profile] [PM]
Display posts from previous:    
Reply to topic

The time now is: Today 08:30

All times are GMT + 3 Hours



You cannot post new topics in this forum
You cannot reply to topics in this forum
You cannot edit your posts in this forum
You cannot delete your posts in this forum
You cannot vote in polls in this forum
You cannot attach files in this forum
You cannot download files in this forum