Today is a free download without charge Download

Дерево Джошуа / Joshua Tree (Вик Армстронг / Vic Armstrong) [1993, США, Боевик, триллер, драма, криминал, детектив, приклю, Blu-ray disc] MVO (ОРТ) + AVO (Андрей Гаврилов) + Sub Rus + Original Eng

Reply to topic
 
Author
Message

Omen ®

Longevity: 8 years 5 months

Posts: 181087

Торрент-статистика

Post 26-Apr-2013 17:57

[Quote]

Дерево Джошуа / Joshua Tree
Страна: США
Студия: Epic Productions, Horned Toad Productions, Stone Group Pictures, Vision International, Zilex N.V.
Жанр: Боевик, триллер, драма, криминал, детектив, приклю
Год выпуска: 1993
Продолжительность: 01:42:07
Перевод: Профессиональный (многоголосый закадровый) ОРТ
Перевод 2: Авторский (одноголосый закадровый) Андрей Гаврилов
Cубтитры: русские
Оригинальная аудиодорожка: английский
Режиссер: Вик Армстронг / Vic Armstrong
В ролях: Дольф Лундгрен, Джордж Сигал, Кристиан Альфонсо, Джеффри Льюис, Бо Старр, Мишель Филлипс, Мэтт Батталья, Берт Ремсен, Майкл Пол Чан, Кэнди Александр, Маркус Браун, Ник Чинланд, Кен Фори, Эдвард Стоун, Ронди Рид, Анита Брабэц, Джейсон Росс-Эйзикив, Чарли Холлидэй, Джимми Вудард, Тони Эппер, Кен Блейзер, Виктор Кинтеро, Пи Ви Пьемонт, Сигал Дайэмант, Ларри Маркс, Питер Спеллос, Мэри Ингерсолл, Тим Де Зарн, Ронни Ронделл мл., Джеффри Дж. Дашнау, Дэнни Вайнандс, Дэна Дрю Эвенсон, Лила Финн, Уолли Роуз, Денвер Маттсон, Анат Топо
Описание: Автогонщик Сэнти обвинен в убийстве полицейского. Это дело рук продажного копа Сэверенса, работающего на мафию. Сэнти получил серьезное ранение, но выжил. Его осудили на пожизненное заключение. Охранники должны были застрелить его якобы при попытке к бегству, но ему удалось скрыться. Спасаясь от преследователей, он берет в заложницы красотку, не подозревая, что она — помощник шерифа. Рита — девица не из слабых. Она делает попытку сбежать, но ей это не удается. Сэнти сам отпускает ее, когда добирается до ранчо своего врага. Но тут уж Рита решает докопаться до сути происходящего...
Сэмпл:http://sendfile.su/801680
Тип релиза: Blu-ray disc
Контейнер: BDAV
Видео: MPEG-4 AVC, 30000 kbps, 1920х1080, 23.976 кадр/с
Аудио: Русский (АС3, 2 ch, 192 Кбит/с)-орт
Аудио 2: Русский (АС3, 2 ch, 192 Кбит/с)- (Гаврилов)
Аудио 3: английский (DTS-HD MA, 6 ch, 3741 Кбит/с)

MediaInfo

Общее
Идентификатор : 0 (0x0)
Полное имя : C:\кино\фильмы\рыбак\Joshua.Tree.1993.BD.HDTracker\BDMV\STREAM\00003.m2ts
Формат : BDAV
Формат/Информация : Blu-ray Video
Размер файла : 25,7 Гбайт
Продолжительность : 1 ч. 42 м.
Режим общего битрейта : Переменный
Общий поток : 36,0 Мбит/сек
Максимальный общий битрейт : 48,0 Мбит/сек
Видео
Идентификатор : 4113 (0x1011)
Идентификатор меню : 1 (0x1)
Формат : AVC
Формат/Информация : Advanced Video Codec
Профиль формата : [email protected]
Параметр CABAC формата : Да
Параметр ReFrames формата : 3 кадра
Идентификатор кодека : 27
Продолжительность : 1 ч. 42 м.
Вид битрейта : Переменный
Максимальный битрейт : 35,0 Мбит/сек
Ширина : 1920 пикселей
Высота : 1080 пикселей
Соотношение сторон : 16:9
Частота кадров : 23,976 кадра/сек
Стандарт вещания : NTSC
Цветовое пространство : YUV
Субдискретизация насыщенности : 4:2:0
Битовая глубина : 8 бит
Тип развёртки : Прогрессивная
Основные цвета : BT.709
Характеристики трансфера : BT.709
Коэффициенты матрицы : BT.709
Аудио #1
Идентификатор : 4352 (0x1100)
Идентификатор меню : 1 (0x1)
Формат : DTS
Формат/Информация : Digital Theater Systems
Профиль формата : MA / Core
Режим : 16
Параметр Endianness формата : Big
Режим смешивания : Stream extension
Идентификатор кодека : 134
Продолжительность : 1 ч. 42 м.
Вид битрейта : Переменный
Битрейт : Неизвестно / 1509 Кбит/сек
Каналы : 6 каналов
Расположение каналов : Front: L C R, Side: L R, LFE
Частота : 48,0 КГц
Битовая глубина : 24 бит
Метод сжатия : Без потерь / Lossy
Аудио #2
Идентификатор : 4353 (0x1101)
Идентификатор меню : 1 (0x1)
Формат : AC-3
Формат/Информация : Audio Coding 3
Расширение режима : CM (complete main)
Параметр Endianness формата : Big
Идентификатор кодека : 129
Продолжительность : 1 ч. 42 м.
Вид битрейта : Постоянный
Битрейт : 192 Кбит/сек
Каналы : 2 канала
Расположение каналов : Front: L R
Частота : 48,0 КГц
Битовая глубина : 16 бит
Метод сжатия : С потерями
Размер потока : 140 Мбайт (1%)
Аудио #3
Идентификатор : 4354 (0x1102)
Идентификатор меню : 1 (0x1)
Формат : AC-3
Формат/Информация : Audio Coding 3
Расширение режима : CM (complete main)
Параметр Endianness формата : Big
Идентификатор кодека : 129
Продолжительность : 1 ч. 42 м.
Вид битрейта : Постоянный
Битрейт : 192 Кбит/сек
Каналы : 2 канала
Расположение каналов : Front: L R
Частота : 48,0 КГц
Битовая глубина : 16 бит
Метод сжатия : С потерями
Размер потока : 140 Мбайт (1%)
Текст
Идентификатор : 4608 (0x1200)
Идентификатор меню : 1 (0x1)
Формат : PGS
Идентификатор кодека : 144

Скриншоты

Other forum [Profile] [PM]
Similar theme
Forum Topic Author Torrent Replies Last Post
./templates/default/images/folder_dl.gif Обучающая и научно-популярная литература Н.И. Даников | Дерево жизни. Все о целебных свойствах березы [1993] [MP3] Omen
0 | 1

0 | 787

1

2013-01-14 21:07
Omen Latest
Display posts from previous:    
Reply to topic

The time now is: Today 13:16

All times are GMT + 3 Hours



You cannot post new topics in this forum
You cannot reply to topics in this forum
You cannot edit your posts in this forum
You cannot delete your posts in this forum
You cannot vote in polls in this forum
You cannot attach files in this forum
You cannot download files in this forum