Today is a free download without charge Download

Обитель зла: Возмездие / Resident Evil: Retribution (Пол У. С. Андерсон) [2012 г., ужасы, фантастика, боевик, триллер, BDRemux, Дубляж, Лицензия]

Reply to topic
 
Author
Message

Meshanik ®

Gender:

Longevity: 8 years 10 months

Posts: 3866

Location: Los Angeles

Торрент-статистика

Post 26-Apr-2013 15:24

[Quote]


Resident Evil: Retribution
- Русское название: Обитель зла: Возмездие
Оригинальное название: Resident Evil: Retribution
Год выпуска: 2012
Страна: Германия, Канада
Жанр: Ужасы, Фантастика, Боевик, Триллер
Продолжительность: 01:35:37
Перевод: Дубляж, Лицензия |Blu-ray EUR|
Тип релиза: Лицензия
Субтитры: Есть
Субтитры: Russian, English, English-Режиссер: Пол У. С. Андерсон
Продюссер: Пол У. С. Андерсон, Джереми Болт, Дон Кармоди
Сценарий: Пол У. С. Андерсон
Бюджет: $65 000 000
Премьера в мире: 3 сентября 2012-
Мировой рейтинг IMDB 5.20 (59 671)-В ролях: Милла Йовович, Сиенна Гиллори, Мишель Родригез, Ариана Энджинир, Ли Бинбин, Борис Коджо, Йохан Урб, Робин Касянов, Кевин Дюран, Офилио Портильо, Одед Фер, Шоун Робертс, Тошио Оки, Такато Йамашита, Мика Накашима, Меган Чарпентье, Авэ Мерсон-О’Брайан, Рэй Олубовейл, Кевин Шанд, Разаак Адоти, Ким Коутс, Мартин Крюз, Иэн Глен, Сандрин Холт, Томас Кречманн, Эли Лартер, Спенсер Лок, Эрик Мэбиас, Вентворт Миллер, Джеймс Пьюрфой, Норман Енг, Анна Болт, Индра Ове, Джозеф Мэй, Хайке Макатч, Лиз Мэй Брайс, Паскуале Алеарди, Колин Сэлмон, Аманда Дийар, Крис Саллинс, Пэрис Сил,-Описание: Смертельный T-вирус, созданный в лабораториях корпорации «Амбрелла», продолжает захватывать Землю, превращая мировое население в легионы пожирающих плоть зомби. Последняя надежда человечества Элис внедряется в самое сердце самой тайной исследовательской базы корпорации и узнает еще больше о собственном таинственном прошлом. Не имея путей к отступлению, Элис продолжает искать виновных в глобальной катастрофе. Вызов, который она принимала в Токио, Нью-Йорке, Вашингтоне и даже в Москве, приводит ее в итоге к взрывающему сознание откровению, которое заставит ее переосмыслить все, что она полагала правдой. С помощью новых союзников и старых друзей, Элис будет сражаться за выживание и убегать из враждебного мира. Отсчет времени начат…- -Качество: BDRemux
Формат: MKV
Видео кодек: H.264
Аудио кодек: AC3/DTS MA
Видео: 1920x1080 (16:9), 23.976 fps, 25.2 Mbps (0.507 bit/pixel)
Аудио#1: AC-3, 48.0 KHz, 6 ch, 640 Kbps, CBR (Russian)
Аудио#2: AC-3, 48.0 KHz, 6 ch, 640 Kbps, CBR (Ukrainian)
Аудио#3: DTS MA / Core, 48.0 KHz, 6 ch, 1 561 Kbps / 1 510 Kbps, VBR (English)
-

Знаете ли вы, что...

Дженсен Эклс пробовался на роль Леона Кеннеди, но позже её получил Йохан Урб.
Ариана Энджинир получила роль Бекки без прослушивания.
-

MediaInfo

Код:
Общее
Уникальный идентификатор : 41901731951656475395186614812900980601 (0x1F85FAE329D3F9A1D285155B82F5F779)
Полное имя : E:Обитель зла. Возмездие.2012.BDRemux.AVC.1080p..mkv
Формат : Matroska
Версия формата : Version 2
Размер файла : 19,1 Гбайт
Продолжительность : 1 ч. 35 м.
Режим общего битрейта : Переменный
Общий поток : 28,6 Мбит/сек
Название фильма : Resident.Evil.Retribution.2012.BDRemux.AVC.1080p
Дата кодирования : UTC 2012-12-07 02:31:16
Программа кодирования : mkvmerge v5.8.0 ('No Sleep / Pillow') built on Oct 10 2012 22:05:47
Библиотека кодирования : libebml v1.2.3 + libmatroska v1.3.0
Видео
Идентификатор : 1
Формат : AVC
Формат/Информация : Advanced Video Codec
Профиль формата : [email protected]
Параметр CABAC формата : Да
Параметр ReFrames формата : 2 кадра
Параметр GOP формата : M=1, N=10
Идентификатор кодека : V_MPEG4/ISO/AVC
Продолжительность : 1 ч. 35 м.
Вид битрейта : Переменный
Ширина : 1920 пикселей
Высота : 1080 пикселей
Соотношение сторон : 16:9
Режим частоты кадров : Постоянный
Частота кадров : 23,976 кадра/сек
Цветовое пространство : YUV
Субдискретизация насыщенности : 4:2:0
Битовая глубина : 8 бит
Тип развёртки : Прогрессивная
Заголовок : Resident.Evil.Retribution.2012.BDRemux.AVC.1080p.[Release_by_Doktor_S.]
Язык : English
Default : Да
Forced : Нет
Аудио #1
Идентификатор : 2
Формат : AC-3
Формат/Информация : Audio Coding 3
Расширение режима : CM (complete main)
Параметр Endianness формата : Big
Идентификатор кодека : A_AC3
Продолжительность : 1 ч. 35 м.
Вид битрейта : Постоянный
Битрейт : 640 Кбит/сек
Каналы : 6 каналов
Расположение каналов : Front: L C R, Side: L R, LFE
Частота : 48,0 КГц
Битовая глубина : 16 бит
Метод сжатия : С потерями
Размер потока : 438 Мбайт (2%)
Заголовок : Rus_DUB
Язык : Russian
Default : Да
Forced : Нет
Аудио #2
Идентификатор : 3
Формат : AC-3
Формат/Информация : Audio Coding 3
Расширение режима : CM (complete main)
Параметр Endianness формата : Big
Идентификатор кодека : A_AC3
Продолжительность : 1 ч. 35 м.
Вид битрейта : Постоянный
Битрейт : 640 Кбит/сек
Каналы : 6 каналов
Расположение каналов : Front: L C R, Side: L R, LFE
Частота : 48,0 КГц
Битовая глубина : 16 бит
Метод сжатия : С потерями
Размер потока : 438 Мбайт (2%)
Заголовок : Ukr_DUB
Язык : Ukrainian
Default : Нет
Forced : Нет
Аудио #3
Идентификатор : 4
Формат : DTS
Формат/Информация : Digital Theater Systems
Профиль формата : MA / Core
Режим : 16
Параметр Endianness формата : Big
Идентификатор кодека : A_DTS
Продолжительность : 1 ч. 35 м.
Вид битрейта : Переменный
Битрейт : Неизвестно / 1509 Кбит/сек
Каналы : 6 каналов
Расположение каналов : Front: L C R, Side: L R, LFE
Частота : 48,0 КГц
Битовая глубина : 24 бит
Метод сжатия : Без потерь / Lossy
Заголовок : Eng_Original
Язык : English
Default : Нет
Forced : Нет
Текст #1
Идентификатор : 5
Формат : UTF-8
Идентификатор кодека : S_TEXT/UTF8
Идентификатор кодека/Информация : UTF-8 Plain Text
Заголовок : Full
Язык : Russian
Default : Нет
Forced : Нет
Текст #2
Идентификатор : 6
Формат : UTF-8
Идентификатор кодека : S_TEXT/UTF8
Идентификатор кодека/Информация : UTF-8 Plain Text
Заголовок : Full
Язык : English
Default : Нет
Forced : Нет
Текст #3
Идентификатор : 7
Формат : UTF-8
Идентификатор кодека : S_TEXT/UTF8
Идентификатор кодека/Информация : UTF-8 Plain Text
Заголовок : SDH
Язык : English
Default : Нет
Forced : Нет
Меню
00:00:00.000 : en:Chapter 00
00:07:43.045 : en:Chapter 01
00:14:32.538 : en:Chapter 02
00:21:38.839 : en:Chapter 03
00:25:39.329 : en:Chapter 04
00:29:31.186 : en:Chapter 05
00:34:16.846 : en:Chapter 06
00:39:14.769 : en:Chapter 07
00:45:29.435 : en:Chapter 08
00:50:27.441 : en:Chapter 09
00:54:42.070 : en:Chapter 10
01:00:14.861 : en:Chapter 11
01:05:38.476 : en:Chapter 12
01:11:22.903 : en:Chapter 13
01:16:15.571 : en:Chapter 14
01:21:29.384 : en:Chapter 15
-

Скриншоты

         
-
Other forum [Profile] [PM]
Display posts from previous:    
Reply to topic

The time now is: Today 04:43

All times are GMT + 3 Hours



You cannot post new topics in this forum
You cannot reply to topics in this forum
You cannot edit your posts in this forum
You cannot delete your posts in this forum
You cannot vote in polls in this forum
You cannot attach files in this forum
You cannot download files in this forum