Today is a free download without charge Download

Тихая гавань / Safe Haven (Лассе Халльстрём / Lasse Hallström) [2013, США, триллер, драма, мелодрама, детектив, BDRip 720p] Dub + Sub Eng + Original Eng

Reply to topic
 
Author
Message

Omen ®

Longevity: 8 years 5 months

Posts: 181087

Торрент-статистика

Post 26-Apr-2013 13:49

[Quote]

Тихая гавань / Safe Haven-«Важно не то, от чего ты бежишь, а то, к чему ты приходишь»- Страна: США
Студия: Relativity Media, Nicholas Sparks Productions, Temple Hill Entertainment
Жанр: триллер, драма, мелодрама, детектив
Год выпуска: 2013
Продолжительность: 01:55:38-Перевод: Профессиональный (дублированный)
Cубтитры: английские (Full, SDH, SDH Colored)
Оригинальная аудиодорожка: английский-Режиссер: Лассе Халльстрём / Lasse Hallström
В ролях: Джулианна Хаф, Джош Дюамель, Дэвид Лайонс, Коби Смолдерс, Мими Кирклэнд, Ной Ломакс, Ред Уэст, Робин Маллинз, Ирен Циглер, Рик Рейц-Описание: Кэти много лет страдала от жестокости мужа. Потеряв надежду на спасение, она совершила отчаянный побег и обрела «тихую гавань» в маленьком спокойном южном городке. Но готова ли Кэти к новым отношениям? Способна ли вновь поверить мужчине, понять его и полюбить? Даже если речь идет о таком обаятельном человеке, как молодой вдовец Алекс Уитли. Алекс и Кэти идут по тонкому льду неизвестности, - а между тем муж Кэти уже начал ее поиски.- -Тип релиза: BDRip 720p
Контейнер: MKV-Видео: AVC; 1280x534; 2,35:1; 23,976 fps; 5250 kbps
Аудио 1: Russian (DTS, 6 ch, 1536 kbps)
Аудио 2: English (DTS, 6 ch, 1536 kbps)
Формат субтитров: softsub (SRT)

MediaInfo

Общее
Уникальный идентификатор : 208766916791069761734052308619899767207 (0x9D0F0BAF5C2C0B5295E7A60C9B2909A7)
Полное имя : F:Safe.Haven.2013.720p.BluRay.DTS.Rus.Eng.mkv
Формат : Matroska
Размер файла : 6,68 Гбайт
Продолжительность : 1 ч. 55 м.
Общий поток : 8270 Кбит/сек
Название фильма : Safe Haven (2013) - Release for HDCLUB
Дата кодирования : UTC 2013-04-25 23:27:42
Программа кодирования : mkvmerge v3.4.0 ('Rapunzel') built on May 15 2010 09:38:20
Библиотека кодирования : libebml v0.8.0 + libmatroska v0.9.0
Видео
Идентификатор : 1
Формат : AVC
Формат/Информация : Advanced Video Codec
Профиль формата : [email protected]
Параметр CABAC формата : Да
Параметр ReFrames формата : 12 кадров
Идентификатор кодека : V_MPEG4/ISO/AVC
Продолжительность : 1 ч. 55 м.
Битрейт : 5250 Кбит/сек
Ширина : 1280 пикс.
Высота : 534 пикс.
Соотношение сторон : 2,35:1
Частота кадров : 23,976 кадр/сек
Цветовое пространство : YUV
Подвыборка цветности : 4:2:0
Битовая глубина : 8 бит
Тип развёртки : Прогрессивная
Бит/(Пиксели*Кадры) : 0.320
Размер потока : 4,11 Гбайт (61%)
Заголовок : Safe Haven (2013) - Release for HDCLUB
Библиотека кодирования : x264 core 130 r2273 b3065e6
Настройки программы : cabac=1 / ref=12 / deblock=1:-3:-3 / analyse=0x3:0x113 / me=umh / subme=10 / psy=1 / psy_rd=1.10:0.00 / mixed_ref=1 / me_range=32 / chroma_me=1 / trellis=2 / 8x8dct=1 / cqm=0 / deadzone=21,11 / fast_pskip=0 / chroma_qp_offset=-2 / threads=12 / lookahead_threads=1 / sliced_threads=0 / nr=0 / decimate=0 / interlaced=0 / bluray_compat=0 / constrained_intra=0 / bframes=6 / b_pyramid=2 / b_adapt=2 / b_bias=0 / direct=3 / weightb=1 / open_gop=0 / weightp=2 / keyint=240 / keyint_min=24 / scenecut=40 / intra_refresh=0 / rc_lookahead=120 / rc=2pass / mbtree=1 / bitrate=5250 / ratetol=1.0 / qcomp=0.70 / qpmin=0 / qpmax=69 / qpstep=4 / cplxblur=20.0 / qblur=0.5 / ip_ratio=1.10 / aq=2:0.85
Язык : English
Аудио #1
Идентификатор : 2
Формат : DTS
Формат/Информация : Digital Theater Systems
Идентификатор кодека : A_DTS
Продолжительность : 1 ч. 55 м.
Вид битрейта : Постоянный
Битрейт : 1510 Кбит/сек
Каналы : 6 каналов
Расположение каналов : Front: L C R, Side: L R, LFE
Частота : 48,0 КГц
Битовая глубина : 16 бит
Метод сжатия : С потерями
Размер потока : 1,22 Гбайт (18%)
Заголовок : DTS 5.1 @ 1536 kbps - DUB, Blu-ray
Язык : Russian
Аудио #2
Идентификатор : 3
Формат : DTS
Формат/Информация : Digital Theater Systems
Идентификатор кодека : A_DTS
Продолжительность : 1 ч. 55 м.
Вид битрейта : Постоянный
Битрейт : 1510 Кбит/сек
Каналы : 6 каналов
Расположение каналов : Front: L C R, Side: L R, LFE
Частота : 48,0 КГц
Битовая глубина : 24 бит
Метод сжатия : С потерями
Задержка видео : 11 мс.
Размер потока : 1,22 Гбайт (18%)
Заголовок : DTS 5.1 @ 1536 kbps
Язык : English
Текст #1
Идентификатор : 4
Формат : UTF-8
Идентификатор кодека : S_TEXT/UTF8
Идентификатор кодека/Информация : UTF-8 Plain Text
Заголовок : Full
Язык : English
Текст #2
Идентификатор : 5
Формат : UTF-8
Идентификатор кодека : S_TEXT/UTF8
Идентификатор кодека/Информация : UTF-8 Plain Text
Заголовок : SDH
Язык : English
Текст #3
Идентификатор : 6
Формат : UTF-8
Идентификатор кодека : S_TEXT/UTF8
Идентификатор кодека/Информация : UTF-8 Plain Text
Заголовок : SDH-COLORED
Язык : English
Меню
00:00:00.000 : en:00:00:00.000
00:06:46.948 : en:00:06:46.948
00:15:18.918 : en:00:15:18.918
00:21:47.139 : en:00:21:47.139
00:28:33.711 : en:00:28:33.711
00:35:33.881 : en:00:35:33.881
00:44:57.611 : en:00:44:57.611
00:55:11.641 : en:00:55:11.641
01:01:17.965 : en:01:01:17.965
01:08:29.522 : en:01:08:29.522
01:15:27.898 : en:01:15:27.898
01:20:51.429 : en:01:20:51.429
01:26:05.159 : en:01:26:05.159
01:32:22.411 : en:01:32:22.411
01:37:28.008 : en:01:37:28.008
01:45:23.650 : en:01:45:23.650

Скриншоты

Other forum [Profile] [PM]
Display posts from previous:    
Reply to topic

The time now is: Today 04:27

All times are GMT + 3 Hours



You cannot post new topics in this forum
You cannot reply to topics in this forum
You cannot edit your posts in this forum
You cannot delete your posts in this forum
You cannot vote in polls in this forum
You cannot attach files in this forum
You cannot download files in this forum