Today is a free download without charge Download

Это безумный, безумный, безумный, безумный мир / It's a Mad Mad Mad Mad World (Стэнли Крамер) [1963 г., боевик, комедия, криминал, приключения, BDRip720]

Reply to topic
 
Author
Message

Delia ®

Gender:

Longevity: 9 years 6 months

Posts: 1821

Торрент-статистика

Post 22-Jul-2011 08:19

[Quote]

Это безумный, безумный, безумный, безумный мирIt's a Mad Mad Mad Mad World Год выпуска: 1963
Страна: США
Жанр: боевик, комедия, криминал, приключения
Продолжительность: 02:39:29
Перевод: Профессиональный (многоголосый, закадровый)
Режиссер: Стэнли Крамер
Продюссер: Стэнли Крамер
Сценарий: Уильям Роуз, Таня Роуз
Бюджет: $9 400 000
Премьера в мире: 7 ноября 1963
В ролях: Спенсер Трэйси, Милтон Берл, Сид Сизар, Бадди Хэкетт, Этель Мерман, Микки Руни, Дик Шоун, Фил Силверс, Терри-Томас, Джонатан Уинтерс
Описание: По дороге в Лас-Вегас мчатся автомобили. В первом едет бизнесмен с женой и тещей. Во втором — дантист с супругой. В третьем — парочка приятелей. Они не знакомы друг с другом и вряд ли когда-нибудь встретились бы.Все они становятся свидетелями аварии. А единственный пострадавший перед смертью открывает тайну: под Большим W он спрятал клад. И вот путешественники превращаются в пиратов. Они наперегонки несутся за сокровищами, пытаясь по дороге посильней испортить жизнь конкурентам...
Качество: BDRip720p
Формат: MKV
Видео кодек: H.264
Аудио кодек: AC3
Видео: English, 3218 Кбит/сек, 1280*464 (2,759), в 23,976 кадр/сек, AVC ([email protected])
Аудио: Russian, 384 Кбит/сек, 48,0 КГц, 16 бит, 6 канала(ов), AC-3 | Профессиональный многоголосый (DVD Magic)
Аудио: Russian, 384 Кбит/сек, 48,0 КГц, 16 бит, 6 канала(ов), AC-3 | Профессиональный многоголосый (SomeWax) народ.ру
Аудио: Russian, 384 Кбит/сек, 48,0 КГц, 16 бит, 6 канала(ов), AC-3 |Авторский одноголосый (Живов)
Аудио: Russian,192 Кбит/сек, 48,0 КГц, 16 бит, 2 канала(ов), AC-3 | Авторский одноголосый (Михалев)
Аудио: Russian, 192 Кбит/сек, 48,0 КГц, 16 бит, 1 канал, AC-3 | Авторский одноголосый ( Карапетян)
Аудио Russian,192 Кбит/сек, 48,0 КГц, 16 бит, 2 канала(ов), AC-3 | Профессиональный двухголосый ( НТВ+)
Аудио: English, 320 Кбит/сек, 48,0 КГц, 16 бит, 6 канала(ов), AC-3 | оригинал
Субтитры:Russian, English - VobSub

MI:

Общее
Уникальный идентификатор : 187737244280186611236462544136712094781 (0x8D3CE0C7770E26F9B691A95573BA043D)
Полное имя : F:\торрент\It's a Mad Mad Mad Mad World (1963)BDRip720p.mkv
Формат : Matroska
Размер файла : 4,38 Гбайт
Продолжительность : 2 ч. 39 м.
Общий поток : 3931 Кбит/сек
Дата кодирования : UTC 2011-07-22 04:31:06
Программа кодирования : mkvmerge v4.9.1 ('Ich will') built on Jul 11 2011 23:53:15
Библиотека кодирования : libebml v1.2.1 + libmatroska v1.1.1
Видео
Идентификатор : 1
Формат : AVC
Формат/Информация : Advanced Video Codec
Профиль формата : [email protected]
Параметр CABAC формата : Да
Параметр ReFrames формата : 10 кадры
Идентификатор кодека : V_MPEG4/ISO/AVC
Продолжительность : 2 ч. 39 м.
Битрейт : 3218 Кбит/сек
Ширина : 1280 пикс.
Высота : 464 пикс.
Соотношение сторон : 2,759
Частота кадров : 23,976 кадр/сек
Цветовое пространство : YUV
Подвыборка цветности : 4:2:0
Битовая глубина : 8 бит
Тип развёртки : Прогрессивная
Бит/(Пиксели*Кадры) : 0.226
Размер потока : 3,51 Гбайт (80%)
Библиотека кодирования : x264 core 116 r2019 9cc407d
Настройки программы : cabac=1 / ref=10 / deblock=1:-3:-3 / analyse=0x3:0x133 / me=umh / subme=8 / psy=1 / psy_rd=1.00:0.15 / mixed_ref=1 / me_range=32 / chroma_me=1 / trellis=2 / 8x8dct=1 / cqm=0 / deadzone=21,11 / fast_pskip=0 / chroma_qp_offset=-3 / threads=6 / sliced_threads=0 / nr=0 / decimate=1 / interlaced=0 / bluray_compat=0 / constrained_intra=0 / bframes=6 / b_pyramid=2 / b_adapt=2 / b_bias=0 / direct=3 / weightb=1 / open_gop=0 / weightp=2 / keyint=250 / keyint_min=23 / scenecut=40 / intra_refresh=0 / rc_lookahead=70 / rc=2pass / mbtree=1 / bitrate=3218 / ratetol=1.0 / qcomp=0.60 / qpmin=0 / qpmax=69 / qpstep=4 / cplxblur=20.0 / qblur=0.5 / ip_ratio=1.40 / aq=1:1.00
Язык : English
Аудио #1
Идентификатор : 2
Формат : AC-3
Формат/Информация : Audio Coding 3
Расширение режима : CM (complete main)
Идентификатор кодека : A_AC3
Продолжительность : 2 ч. 39 м.
Вид битрейта : Постоянный
Битрейт : 384 Кбит/сек
Канал(ы) : 6 канала(ов)
Расположение каналов : Front: L C R, Side: L R, LFE
Частота : 48,0 КГц
Битовая глубина : 16 бит
Метод сжатия : С потерями
Задержка видео : 21 мс.
Размер потока : 438 Мбайт (10%)
Язык : Russian
Аудио #2
Идентификатор : 3
Формат : AC-3
Формат/Информация : Audio Coding 3
Расширение режима : CM (complete main)
Идентификатор кодека : A_AC3
Продолжительность : 2 ч. 39 м.
Вид битрейта : Постоянный
Битрейт : 320 Кбит/сек
Канал(ы) : 6 канала(ов)
Расположение каналов : Front: L C R, Side: L R, LFE
Частота : 48,0 КГц
Битовая глубина : 16 бит
Метод сжатия : С потерями
Размер потока : 365 Мбайт (8%)
Язык : English
Текст #1
Идентификатор : 4
Формат : VobSub
Режим смешивания : zlib
Идентификатор кодека : S_VOBSUB
Идентификатор кодека/Информация : The same subtitle format used on DVDs
Язык : Russian
Текст #2
Идентификатор : 5
Формат : VobSub
Режим смешивания : zlib
Идентификатор кодека : S_VOBSUB
Идентификатор кодека/Информация : The same subtitle format used on DVDs
Язык : English
Меню
00:00:00.000 : en:00:00:00.000
00:06:45.696 : en:00:06:45.696
00:11:41.409 : en:00:11:41.409
00:16:58.642 : en:00:16:58.642
00:22:19.171 : en:00:22:19.171
00:24:26.298 : en:00:24:26.298
00:31:14.831 : en:00:31:14.831
00:35:28.584 : en:00:35:28.584
00:41:27.276 : en:00:41:27.276
00:45:52.666 : en:00:45:52.666
00:52:00.492 : en:00:52:00.492
00:56:04.027 : en:00:56:04.027
01:01:42.156 : en:01:01:42.156
01:07:13.779 : en:01:07:13.779
01:11:40.921 : en:01:11:40.921
01:15:59.054 : en:01:15:59.054
01:20:51.096 : en:01:20:51.096
01:27:07.847 : en:01:27:07.847
01:32:12.818 : en:01:32:12.818
01:32:33.547 : en:01:32:33.547
01:37:43.732 : en:01:37:43.732
01:44:51.618 : en:01:44:51.618
01:50:55.190 : en:01:50:55.190
01:56:56.676 : en:01:56:56.676
02:04:07.690 : en:02:04:07.690
02:08:36.750 : en:02:08:36.750
02:11:27.713 : en:02:11:27.713
02:14:07.497 : en:02:14:07.497
02:17:39.084 : en:02:17:39.084
02:25:56.706 : en:02:25:56.706
02:34:16.914 : en:02:34:16.914
02:36:53.237 : en:02:36:53.237

Скриншоты

                   

_________________
Человек – это канат, натянутый между животным и сверхчеловеком, – канат над пропастью.
В человеке ценно то, что он мост, а не цель. Фридрих Ницше


Last edited by Delia on 2011-08-26 17:56; edited 1 time in total
Other forum [Profile] [PM]
Display posts from previous:    
Reply to topic

The time now is: Today 08:49

All times are GMT + 3 Hours



You cannot post new topics in this forum
You cannot reply to topics in this forum
You cannot edit your posts in this forum
You cannot delete your posts in this forum
You cannot vote in polls in this forum
You cannot attach files in this forum
You cannot download files in this forum