Today is a free download without charge Download

Beer [email protected]Н.Новгород 14.04.2013 [2013, Folk Metal, HDCamRip]

Reply to topic
 
Author
Message

Omen ®

Longevity: 8 years 2 months

Posts: 181087

Торрент-статистика

Post 26-Apr-2013 09:45

[Quote]

Beer [email protected]Н.Новгород 14.04.2013
Жанр: Folk Metal
Продолжительность: 1:11:08
Год выпуска: 2013
Съемка: VV Video
Описание:
http://vk.com/event50803567
01 Медвежья свадьба
02 Огнемёд
03 Vodka (Korpiklaani cover)
04 Beer Bear
05 Фолк-н-Ролл
06 За незримой чертой
07 1918
08 Na Zielonej Ukraine
09 Quo Vadis
10 Зов северного ветра
11 Я не помню дорог...
12 Марш медведей
13 Сын седых времен (Ensiferum cover)
14 Сон-трава
15 Мать троллей
Качество: HDCamRip
Контейнер: MP4
Видео кодек: H.264
Аудио кодек: AAC
Видео: AVC; 1920x1080 (16:9); 14,4 Mbps; 24 fps
Аудио: AAC LC; 290 Kbps; VBR; 2 ch; 16 bit

Отчёт MediaInfo / BDInfo

GeneralComplete name : D:\Beer_Bear_NiNo_14042013\01.mp4Format : MPEG-4Format profile : Base Media / Version 2Codec ID : mp42File size : 440 MiBDuration : 4mn 13sOverall bit rate mode : VariableOverall bit rate : 14.6 MbpsEncoded date : UTC 2013-04-23 12:01:22Tagged date : UTC 2013-04-23 12:01:28©TIM : 00:02:03:14©TSC : 24000©TSZ : 1001
VideoID : 1Format : AVCFormat/Info : Advanced Video CodecFormat profile : [email protected] settings, CABAC : YesFormat settings, ReFrames : 3 framesCodec ID : avc1Codec ID/Info : Advanced Video CodingDuration : 4mn 13sSource duration : 4mn 13sBit rate : 14.4 MbpsWidth : 1 920 pixelsHeight : 1 080 pixelsDisplay aspect ratio : 16:9Frame rate mode : VariableFrame rate : 23.976 fpsMinimum frame rate : 23.976 fpsMaximum frame rate : 24.000 fpsStandard : PALColor space : YUVChroma subsampling : 4:2:0Bit depth : 8 bitsScan type : ProgressiveBits/(Pixel*Frame) : 0.289Stream size : 434 MiB (99%)Source stream size : 434 MiB (99%)Language : EnglishEncoded date : UTC 2013-04-23 12:01:22Tagged date : UTC 2013-04-23 12:01:22mdhd_Duration : 253670
AudioID : 2Format : AACFormat/Info : Advanced Audio CodecFormat profile : LCCodec ID : 40Duration : 4mn 13sSource duration : 4mn 13sBit rate mode : VariableBit rate : 192 KbpsMaximum bit rate : 290 KbpsChannel(s) : 2 channelsChannel positions : Front: L RSampling rate : 48.0 KHzCompression mode : LossyStream size : 5.73 MiB (1%)Source stream size : 5.73 MiB (1%)Language : EnglishEncoded date : UTC 2013-04-23 12:01:22Tagged date : UTC 2013-04-23 12:01:22mdhd_Duration : 253717

Скриншоты





Other forum [Profile] [PM]
Display posts from previous:    
Reply to topic

The time now is: Today 07:16

All times are GMT + 3 Hours



You cannot post new topics in this forum
You cannot reply to topics in this forum
You cannot edit your posts in this forum
You cannot delete your posts in this forum
You cannot vote in polls in this forum
You cannot attach files in this forum
You cannot download files in this forum