Today is a free download without charge Download

Трое в лодке, не считая собаки (1979) Blu-ray [1080p]

Reply to topic
 
Author
Message

UndegraundMen ®

Longevity: 8 years 7 months

Posts: 25145

Торрент-статистика

Post 26-Apr-2013 00:01

[Quote]

Трое в лодке, не считая собаки (1979) Blu-ray- Оригинальное название: Трое в лодке, не считая собаки
Год выпуска: 1979
Производство: Ленфильм [СССР]
Жанр: Мюзикл, комедия
Перевод: Не требуется [Русский язык]
Субтитры: Отсутствуют
Режиссер: Наум Бирман
Актеры: Андрей Миронов, Александр Ширвиндт, Михаил Державин, Лев Лемке, Георгий Штиль, Лариса Голубкина, Алина Покровская, Ирина Мазуркевич, Зиновий Гердт, Татьяна Пельтцер, Ольга Волкова
Описание фильма:
Отечественная телевизионная версия по одноименной повести Джерома К. Джерома. Однажды трое приятелей-холостяков, лондонских жителей, решили сделаться ближе к природе и отправиться в лодочное путешествие по Темзе, прихватив с собой собачку Монморенси…
Дата мировой премьеры: 4 мая 1979
Дата выхода DVD релиза: 18 февраля 2010, «Lizard Cinema Trade»
Возраст 0+ - для любой зрительской аудитории

Продолжительность: 02:12:26
Качество видео: Blu-ray
Версия фильма 4:3
Видео: MPEG4_AVC, 1920x1080, ~ 14431 kbps, 23.976 fps
Аудио 1: DTS-HD MA 5.1, 3437 kbps [Русский]
Аудио 2: AC3 5.1, 448 kbps [Русский]
Аудио 3: LPCM 1.0, 1152 kbps [Русский]
Версия фильма 16:9
Видео: MPEG4_AVC, 1920x1080, ~ 14548 kbps, 23.976 fps
Аудио 1: DTS-HD MA 5.1, 3437 kbps [Русский]
Аудио 2: AC3 5.1, 448 kbps [Русский]
Аудио 3: LPCM 1.0, 1152 kbps [Русский]

На диске...

  • Фильмографии

BDInfo...

Код:
DISC INFO:
Disc Title:     Трое.в.лодке.не.считая.собаки.(1979).Blu-ray.[1080p]
Disc Size:      47 307 197 110 bytes
Protection:     AACS
BD-Java:        No
BDInfo:         0.5.8
PLAYLIST REPORT:
Name:                   00004.MPLS
Length:                 2:12:26.938 (h:m:s.ms)
Size:                   21 751 037 952 bytes
Total Bitrate:          21,90 Mbps
VIDEO:
Codec                   Bitrate             Description
-----                   -------             -----------
MPEG-4 AVC Video        14431 kbps          1080p / 23,976 fps / 16:9 / High Profile 4.1
AUDIO:
Codec                           Language        Bitrate         Description
-----                           --------        -------         -----------
DTS-HD Master Audio             Russian         3437 kbps       5.1 / 48 kHz / 3437 kbps / 24-bit (DTS Core: 5.1 / 48 kHz / 1509 kbps / 24-bit)
Dolby Digital Audio             Russian         448 kbps        5.1 / 48 kHz / 448 kbps
LPCM Audio                      Russian         1152 kbps       1.0 / 48 kHz / 1152 kbps / 24-bit
FILES:
Name            Time In         Length          Size            Total Bitrate
----            -------         ------          ----            -------------
00010.M2TS      0:00:00.000     1:06:24.397     10 821 679 104  21 728
00011.M2TS      1:06:24.397     1:06:02.541     10 929 358 848  22 065
CHAPTERS:
Number          Time In         Length          Avg Video Rate  Max 1-Sec Rate  Max 1-Sec Time  Max 5-Sec Rate  Max 5-Sec Time  Max 10Sec Rate  Max 10Sec Time  Avg Frame Size  Max Frame Size  Max Frame Time
------          -------         ------          --------------  --------------  --------------  --------------  --------------  --------------  --------------  --------------  --------------  --------------
1               0:00:00.000     0:04:26.432     10 295 kbps     19 225 kbps     00:04:03.910    16 041 kbps     00:03:48.811    15 005 kbps     00:03:44.015    53 666 bytes    278 315 bytes   00:00:00.000
2               0:04:26.432     0:10:15.740     12 839 kbps     27 815 kbps     00:10:03.477    20 361 kbps     00:10:00.016    19 517 kbps     00:09:55.011    66 937 bytes    363 675 bytes   00:10:00.766
3               0:14:42.172     0:05:55.355     13 504 kbps     21 990 kbps     00:15:39.480    17 465 kbps     00:14:51.682    16 357 kbps     00:14:51.473    70 404 bytes    345 854 bytes   00:17:42.436
4               0:20:37.527     0:03:05.810     15 536 kbps     27 930 kbps     00:20:44.993    22 612 kbps     00:20:43.867    20 019 kbps     00:20:43.617    80 999 bytes    369 115 bytes   00:20:50.332
5               0:23:43.338     0:05:55.354     15 432 kbps     18 405 kbps     00:27:08.376    17 066 kbps     00:25:54.135    16 610 kbps     00:28:32.585    80 455 bytes    207 082 bytes   00:28:37.632
6               0:29:38.693     0:07:11.973     15 123 kbps     19 007 kbps     00:31:50.450    17 124 kbps     00:31:55.163    16 846 kbps     00:31:55.997    78 843 bytes    240 494 bytes   00:31:50.199
7               0:36:50.666     0:06:53.454     14 672 kbps     18 982 kbps     00:41:30.446    16 516 kbps     00:39:00.713    15 762 kbps     00:38:55.708    76 495 bytes    222 748 bytes   00:43:01.912
8               0:43:44.121     0:01:43.645     15 003 kbps     18 284 kbps     00:45:05.244    16 102 kbps     00:45:01.240    15 808 kbps     00:44:08.228    78 218 bytes    192 477 bytes   00:43:53.881
9               0:45:27.766     0:05:23.197     15 022 kbps     18 397 kbps     00:46:34.958    16 378 kbps     00:50:39.953    16 013 kbps     00:50:14.386    78 317 bytes    223 110 bytes   00:50:24.271
10              0:50:50.964     0:06:00.276     15 161 kbps     18 531 kbps     00:56:47.946    16 609 kbps     00:56:44.234    16 413 kbps     00:56:39.229    79 045 bytes    210 413 bytes   00:56:47.404
11              0:56:51.241     0:14:43.924     13 217 kbps     18 790 kbps     00:58:24.918    17 784 kbps     01:01:58.005    17 120 kbps     01:01:53.501    68 909 bytes    315 565 bytes   01:11:35.165
12              1:11:35.165     0:11:01.535     14 954 kbps     22 986 kbps     01:14:42.477    19 998 kbps     01:14:47.733    19 079 kbps     01:14:45.898    77 962 bytes    395 828 bytes   01:11:51.348
13              1:22:36.701     0:14:55.769     14 984 kbps     19 582 kbps     01:34:53.062    17 335 kbps     01:25:47.642    16 162 kbps     01:25:42.637    78 119 bytes    240 655 bytes   01:22:37.035
14              1:37:32.471     0:07:57.351     15 126 kbps     19 087 kbps     01:38:41.749    17 717 kbps     01:38:11.302    17 604 kbps     01:38:12.511    78 862 bytes    301 573 bytes   01:38:41.248
15              1:45:29.823     0:18:32.486     15 041 kbps     19 905 kbps     01:57:14.235    17 515 kbps     01:55:01.769    16 956 kbps     01:55:01.644    78 417 bytes    254 116 bytes   01:57:12.316
16              2:04:02.309     0:08:19.165     14 834 kbps     19 060 kbps     02:08:06.845    17 636 kbps     02:04:23.372    17 042 kbps     02:08:06.845    77 340 bytes    294 382 bytes   02:04:20.411
17              2:12:21.475     0:00:05.463     7 147 kbps      16 359 kbps     02:12:21.850    7 573 kbps      02:12:21.475    0 kbps          00:00:00.000    37 547 bytes    209 928 bytes   02:12:22.142
Код:
DISC INFO:
Disc Title:     Трое.в.лодке.не.считая.собаки.(1979).Blu-ray.[1080p]
Disc Size:      47 307 197 110 bytes
Protection:     AACS
BD-Java:        No
BDInfo:         0.5.8
PLAYLIST REPORT:
Name:                   00005.MPLS
Length:                 2:12:26.938 (h:m:s.ms)
Size:                   21 872 166 912 bytes
Total Bitrate:          22,02 Mbps
VIDEO:
Codec                   Bitrate             Description
-----                   -------             -----------
MPEG-4 AVC Video        14548 kbps          1080p / 23,976 fps / 16:9 / High Profile 4.1
AUDIO:
Codec                           Language        Bitrate         Description
-----                           --------        -------         -----------
DTS-HD Master Audio             Russian         3437 kbps       5.1 / 48 kHz / 3437 kbps / 24-bit (DTS Core: 5.1 / 48 kHz / 1509 kbps / 24-bit)
Dolby Digital Audio             Russian         448 kbps        5.1 / 48 kHz / 448 kbps
LPCM Audio                      Russian         1152 kbps       1.0 / 48 kHz / 1152 kbps / 24-bit
FILES:
Name            Time In         Length          Size            Total Bitrate
----            -------         ------          ----            -------------
00012.M2TS      0:00:00.000     1:06:24.397     10 947 796 992  21 981
00013.M2TS      1:06:24.397     1:06:02.541     10 924 369 920  22 055
CHAPTERS:
Number          Time In         Length          Avg Video Rate  Max 1-Sec Rate  Max 1-Sec Time  Max 5-Sec Rate  Max 5-Sec Time  Max 10Sec Rate  Max 10Sec Time  Avg Frame Size  Max Frame Size  Max Frame Time
------          -------         ------          --------------  --------------  --------------  --------------  --------------  --------------  --------------  --------------  --------------  --------------
1               0:00:00.000     0:04:26.432     11 945 kbps     25 687 kbps     00:03:31.252    18 805 kbps     00:03:48.811    17 417 kbps     00:03:45.266    62 265 bytes    388 332 bytes   00:00:33.033
2               0:04:26.432     0:10:14.989     13 877 kbps     27 888 kbps     00:05:47.013    21 115 kbps     00:05:46.012    18 464 kbps     00:09:50.172    72 348 bytes    436 713 bytes   00:13:42.738
3               0:14:41.422     0:05:56.105     15 152 kbps     23 991 kbps     00:14:52.099    20 899 kbps     00:14:51.849    19 021 kbps     00:14:50.472    78 997 bytes    400 474 bytes   00:15:01.817
4               0:20:37.527     0:03:05.810     15 168 kbps     26 147 kbps     00:20:45.202    19 619 kbps     00:20:43.283    16 997 kbps     00:20:42.282    79 079 bytes    312 212 bytes   00:20:40.530
5               0:23:43.338     0:05:55.354     14 998 kbps     18 903 kbps     00:25:55.929    17 613 kbps     00:26:38.179    16 277 kbps     00:26:11.695    78 190 bytes    217 416 bytes   00:29:04.826
6               0:29:38.693     0:07:11.305     14 785 kbps     18 977 kbps     00:30:58.231    16 739 kbps     00:32:55.348    16 017 kbps     00:32:50.343    77 083 bytes    227 469 bytes   00:31:51.159
7               0:36:49.999     0:06:54.122     14 919 kbps     18 671 kbps     00:39:02.965    16 672 kbps     00:40:07.238    16 017 kbps     00:37:35.503    77 781 bytes    207 442 bytes   00:37:34.293
8               0:43:44.121     0:01:43.645     14 850 kbps     18 547 kbps     00:45:17.423    16 843 kbps     00:44:50.020    15 824 kbps     00:45:15.796    77 423 bytes    229 742 bytes   00:44:11.148
9               0:45:27.766     0:05:23.197     14 573 kbps     18 449 kbps     00:49:40.143    16 450 kbps     00:50:45.834    15 824 kbps     00:46:27.367    75 978 bytes    204 132 bytes   00:48:05.716
10              0:50:50.964     0:05:59.776     14 800 kbps     18 704 kbps     00:54:17.420    16 902 kbps     00:56:37.685    16 417 kbps     00:56:38.103    77 158 bytes    226 742 bytes   00:51:45.477
11              0:56:50.740     0:14:44.425     13 646 kbps     22 728 kbps     01:10:49.745    17 824 kbps     01:01:58.548    17 690 kbps     01:01:53.543    71 145 bytes    480 858 bytes   01:11:02.257
12              1:11:35.165     0:11:01.535     14 932 kbps     23 122 kbps     01:13:28.028    19 381 kbps     01:13:52.886    18 107 kbps     01:12:29.595    77 849 bytes    517 781 bytes   01:13:57.891
13              1:22:36.701     0:14:55.769     14 752 kbps     18 985 kbps     01:34:52.937    17 485 kbps     01:30:14.534    16 450 kbps     01:34:28.579    76 909 bytes    217 418 bytes   01:28:14.622
14              1:37:32.471     0:07:57.351     14 841 kbps     18 641 kbps     01:45:26.653    17 833 kbps     01:38:19.184    17 628 kbps     01:38:15.889    77 373 bytes    218 589 bytes   01:40:15.217
15              1:45:29.823     0:18:32.486     14 833 kbps     19 191 kbps     01:57:14.193    17 768 kbps     01:55:01.394    16 649 kbps     01:55:01.394    77 332 bytes    237 506 bytes   01:57:14.277
16              2:04:02.309     0:08:19.165     14 895 kbps     18 768 kbps     02:08:06.845    17 900 kbps     02:08:06.845    17 449 kbps     02:08:06.845    77 658 bytes    225 973 bytes   02:08:53.142
17              2:12:21.475     0:00:05.463     7 566 kbps      15 510 kbps     02:12:21.600    7 951 kbps      02:12:21.475    0 kbps          00:00:00.000    39 747 bytes    149 911 bytes   02:12:22.142

Дополнительно...

Полная реставрация изображения и звука. Исходные киноматериалы подготовлены Госфильмофондом России. Покадровая цифровая реставрация изображения, ремастеринг звука и авторинг проведены объединением «Крупный план».
Скриншоты (версия 4/3):
       
Скриншоты (версия 16/9):
       

Знаете ли вы, что...

  • Многие эпизоды в фильме появились как экспромт.
  • Фильм снимался в Калининградской области в окрестностях г. Советск и г. Неман, а также в самих городах, а роль Темзы сыграли пограничная река Неман и река Шешупе.
  • Роль Монморанси играли два фокстерьера с весьма несхожими характерами.

Рецензия от Andron...

«Вялый? Да. Частый?! М-м, не всегда. Жидкий?!?!»
Кино, конечно, не самое выдающееся. Первая серия так вообще навевает местами откровенную тоску. Но вторая с лихвой компенсирует это, давая возможность достаточно высоко оценивать весь фильм в целом. Хорошая картина. Добрая. Душевная.
Выражение «английский юмор» давно стало в русском языке (а может, и не только в нем) нарицательным, и это, надо полагать, неспроста. Что до меня, то я, в свое время, сподобился прочесть повесть Джерома К. Джерома исключительно в силу впечатлений, полученных от просмотра одноименной картины. Увы, меня постигло жуткое разочарование, «всемирно известная остроумнейшая» книга оказалась чрезвычайно нудной, скучной и неинтересной. Не спасли даже те яркие, запоминающиеся образы, что были созданы нашими выдающимися актерами. Вторую повесть — про путешествие на велосипедах — я и вовсе не осилил, что, к слову сказать, бывает со мной крайне редко. Это к чему — весьма посредственный материальчик за основу взяли — сложно было на что-то серьезное рассчитывать, думается мне.
И, тем не менее. Складывается ощущение, что из второсортного произведения был выжат максимум, более того, исходный продукт подвергся тщательной доработке, в результате чего мы получили вполне приемлемый фильм, который приятно посмотреть в минуту отдыха.
Из недостатков хочу отметить некоторую музыкальную перегруженность (во всяком случае, когда речь идет об отступлениях от основного сюжета, к примеру, куплеты миссис Байкли или, скажем, трио гренадеров) и чрезмерный акцент на многоликость, безусловно, талантливейшего А. Миронова. В остальном — очень даже. Сыграно, как я уже отмечал, просто на ура, реплики, такие как: «Ну, ты, чучело! Не трогай чучело!», «Ну сказал и сказал!», «Мама, вот опять наша булочка!», «Север, юг, самое трудное — определить, где здесь запад, где — восток!» и многие другие стали, надо полагать, народным достоянием. Музыкальные произведения лично мне кажутся очень милыми и, главное, качественными, как по содержанию, так и по исполнению, впрочем, иначе и быть не могло, учитывая, опять же, актерский состав. Что до меня, то пальму первенства я отдаю «Песне трактирщика» — просто здорово получилось.
Ну и, собственно говоря, что еще. Любовь? Понятно, конечно, что здесь всё это дело выглядит несколько упрощенным, но, знаете ли, с другой стороны, на мой взгляд, в этом определенно что-то есть. Во всяком случае, всё очень изысканно, эстетично и плюс некий ореол романтики — мне нравится.
Таким образом, можно констатировать, что фильм честно заслужил свою порцию народного признания, любви и соответствующую оценку:
8 из 10
Other forum [Profile] [PM]
Display posts from previous:    
Reply to topic

The time now is: Today 22:36

All times are GMT + 3 Hours



You cannot post new topics in this forum
You cannot reply to topics in this forum
You cannot edit your posts in this forum
You cannot delete your posts in this forum
You cannot vote in polls in this forum
You cannot attach files in this forum
You cannot download files in this forum