Today is a free download without charge Download

21 и больше / 21 & Over (Джон Лукас, Скотт Мур) [2013 г., комедия ] [H.264/720p-LQ] WEB-DLRip

Reply to topic
 
Author
Message

sashau ®

Gender:

Longevity: 9 years 4 months

Posts: 3497

Торрент-статистика

Post 25-Apr-2013 16:38

[Quote]

21 и больше / 21 & Over
«Наконец-то»- Русское название: 21 и больше
Оригинальное название: 21 & Over
Год выпуска: 2013
Производство: США
Жанр: Комедия
Перевод: Дублированный [Чистый звук]
Субтитры: Отсутствуют
Дата мировой премьеры: 28 февраля 2013
Дата российской премьеры: 7 марта 2013, «Парадиз»
Дата выхода DVD релиза: 30 апреля 2013, «Парадиз / Активижен»
Дата выхода Blu-Ray релиза: 21 мая 2013, «Парадиз / Активижен»
Режиссер: Джон Лукас, Скотт Мур
Продюсер: Дэвид Хоберман, Райан Кэвэна, Тодд Либерман
Актеры: Скайлар Эстин, Сара Райт, Майлз Теллер, Джонатан Кельтц, Джастин Чон, Сара Райт, Джонатан Кельтц, Франсуа Чау, Расселл Ходжкинсон, Дэниэл Буко, Расселл Меркадо, Джози Лор
Описание фильма:
Двое друзей подбивают третьего отметить его 21-ый день рождения прямо накануне важного экзамена в медицинский колледж. Никто не замечает, как одна кружка пива превращается в море выпивки, а вечеринка — в бурное и незабываемое приключение с музыкой и девчонками. И где же они окажутся утром?

Продолжительность: 01:29:19
Качество видео: WEB-DLRip
Видеокодек: MPEG-4 AVC/H.264
Битрейт видео: ~2885 Kbit/s
Размер кадра: 1280 x 720
Аудиокодек: AC3 5.1
Битрейт аудио: 384 Kbit/s

MediaInfo

Общее
Уникальный идентификатор : 252864912814160311418669248889312368060 (0xBE3C02C056E1103EA001513CBF71D5BC)
Полное имя : D:\Торренты\21 и больше.2013.WEB-DLRip.720p.mkv
Формат : Matroska
Размер файла : 2,04 Гбайт
Продолжительность : 1 ч. 29 м.
Общий поток : 3266 Кбит/сек
Дата кодирования : UTC 2013-04-24 20:25:34
Программа кодирования : mkvmerge v6.1.0 ('Old Devil')
Библиотека кодирования : libebml v1.3.0 + libmatroska v1.4.0
Видео
Идентификатор : 1
Формат : AVC
Формат/Информация : Advanced Video Codec
Профиль формата : [url=mailto:[email protected]][email protected][/url]
Параметр CABAC формата : Да
Параметр ReFrames формата : 5 кадров
Идентификатор кодека : V_MPEG4/ISO/AVC
Продолжительность : 1 ч. 29 м.
Битрейт : 2885 Кбит/сек
Ширина : 1280 пикс.
Высота : 720 пикс.
Соотношение сторон : 16:9
Частота кадров : 25,000 кадр/сек
Цветовое пространство : YUV
Подвыборка цветности : 4:2:0
Битовая глубина : 8 бит
Тип развёртки : Прогрессивная
Бит/(Пиксели*Кадры) : 0.125
Размер потока : 1,76 Гбайт (86%)
Библиотека кодирования : x264 core 130 r2273 b3065e6
Настройки программы : cabac=1 / ref=5 / deblock=1:-3:-3 / analyse=0x3:0x133 / me=umh / subme=6 / psy=1 / psy_rd=1.00:0.00 / mixed_ref=1 / me_range=16 / chroma_me=1 / trellis=2 / 8x8dct=1 / cqm=0 / deadzone=21,11 / fast_pskip=0 / chroma_qp_offset=-2 / threads=12 / lookahead_threads=3 / sliced_threads=0 / nr=0 / decimate=0 / interlaced=0 / bluray_compat=0 / constrained_intra=0 / bframes=5 / b_pyramid=2 / b_adapt=2 / b_bias=0 / direct=3 / weightb=1 / open_gop=0 / weightp=2 / keyint=250 / keyint_min=25 / scenecut=40 / intra_refresh=0 / rc_lookahead=60 / rc=2pass / mbtree=0 / bitrate=2885 / ratetol=1.0 / qcomp=0.60 / qpmin=0 / qpmax=69 / qpstep=4 / cplxblur=20.0 / qblur=0.5 / vbv_maxrate=5000 / vbv_bufsize=6250 / nal_hrd=none / ip_ratio=1.40 / pb_ratio=1.30 / aq=1:0.80
Аудио
Идентификатор : 2
Формат : AC-3
Формат/Информация : Audio Coding 3
Расширение режима : CM (complete main)
Идентификатор кодека : A_AC3
Продолжительность : 1 ч. 29 м.
Вид битрейта : Постоянный
Битрейт : 384 Кбит/сек
Каналы : 6 каналов
Расположение каналов : Front: L C R, Side: L R, LFE
Частота : 48,0 КГц
Битовая глубина : 16 бит
Метод сжатия : С потерями
Размер потока : 245 Мбайт (12%)
Язык : Russian
Скриншоты:
           
Other forum [Profile] [PM]

Dracula

Longevity: 7 years 6 months

Posts: 11221

Торрент-статистика

Post 02-Jan-2014 15:52 (after 8 months 6 days)

Топик был перенесен из форума Новинки (DVD, HD Video) в форум Зарубежное кино (HD Video)


kogesan
 
Display posts from previous:    
Reply to topic

The time now is: Today 05:46

All times are GMT + 3 Hours



You cannot post new topics in this forum
You cannot reply to topics in this forum
You cannot edit your posts in this forum
You cannot delete your posts in this forum
You cannot vote in polls in this forum
You cannot attach files in this forum
You cannot download files in this forum