Today is a free download without charge Download

Дракула 3: Наследие / Dracula III: Legacy (Патрик Люссье / Patrick Lussier) [2005, США, ужасы, BDRemux 1080p] MVO (West Video) + DVO (SUPERBIT) + Original (Eng) + Subs (Rus, Eng)

Reply to topic
 
Author
Message

Omen ®

Longevity: 8 years 5 months

Posts: 181087

Торрент-статистика

Post 25-Apr-2013 01:20

[Quote]

Дракула 3: Наследие / Dracula III: Legacy

-
-Страна: США
Студия: Dimension Films
Жанр: Ужасы
Год выпуска: 2005
Продолжительность: 01:30:45--Перевод 1: Профессиональный (многоголосый закадровый) West Video
Перевод 2: Профессиональный (двухголосый закадровый) SUPERBIT
Cубтитры: русские, английские SDH
Оригинальная аудиодорожка: английский--Режиссер: Патрик Люссье / Patrick Lussier
В ролях: Джейсон Скотт Ли, Стивен Биллингтон, Дайан Нил, Джейсон Лондон, Рутгер Хауэр, Илинка Гойя, Джордж Григоре, Рой Шайдер, Том Кэйн--Описание: Преследование Дракулы приводит охотников на вампиров — отца Уффици и Люка в Румынию. Где они обнаруживают настоящий ад, в котором развернулось ужасающее кровавое пиршество!--imdb | kinopoisk | Сэмпл--Тип релиза: BDRemux 1080i [Dracula Wes Craven 4 Film Series 2000-2005 1080i/p Blu-ray AVC DTS-HD MA 2 0/5 1]
Контейнер: MKV
Видео: MPEG-4 AVC / 13998 kbps / 1920x1080 / 23,976 fps / 16:9 / High Profile 4.1
Аудио 1: AC3 / 2.0 / 48 kHz / 192 kbps / 16 bits |MVO, West Video|
Аудио 2: DTS / 5.1 / 48 kHz / 755 kbps / 24 bits |DVO, SUPERBIT|
Аудио 3: DTS-HD Master Audio / 5.1 / 48 kHz / 2730 kbps / 16 bits (DTS Core: 5.1 / 48 kHz / 1510 kbps / 16 bits) |original|
Формат субтитров: softsub [SRT]

MediaInfo

ОбщееУникальный идентификатор : 247755115137829925988779576333896837618 (0xBA63E64669880ECB8DCAB31E4C48E9F2)Полное имя : G:\HD\Дракула 3 Наследие.2005.Blu-Ray.Remux.(1080p).mkvФормат : MatroskaВерсия формата : Version 2Размер файла : 11,2 ГбайтПродолжительность : 1 ч. 30 м.Режим общего битрейта : ПеременныйОбщий поток : 17,7 Мбит/секДата кодирования : UTC 2013-04-24 17:21:12Программа кодирования : mkvmerge v5.8.0 ('No Sleep / Pillow') built on Sep 2 2012 15:37:04Библиотека кодирования : libebml v1.2.3 + libmatroska v1.3.0
ВидеоИдентификатор : 1Формат : AVCФормат/Информация : Advanced Video CodecПрофиль формата : [email protected]Параметр CABAC формата : ДаПараметр ReFrames формата : 4 кадраРежим смешивания : Container [email protected]Идентификатор кодека : V_MPEG4/ISO/AVCПродолжительность : 1 ч. 30 м.Вид битрейта : ПеременныйМаксимальный битрейт : 38,0 Мбит/секШирина : 1920 пикселейВысота : 1080 пикселейСоотношение сторон : 16:9Режим частоты кадров : ПостоянныйЧастота кадров : 23,976 кадра/секЦветовое пространство : YUVСубдискретизация насыщенности : 4:2:0Битовая глубина : 8 битТип развёртки : ПрогрессивнаяDefault : ДаForced : НетОсновные цвета : BT.709Характеристики трансфера : BT.709Коэффициенты матрицы : BT.709
Аудио #1Идентификатор : 2Формат : AC-3Формат/Информация : Audio Coding 3Расширение режима : CM (complete main)Параметр Endianness формата : BigИдентификатор кодека : A_AC3Продолжительность : 1 ч. 30 м.Вид битрейта : ПостоянныйБитрейт : 192 Кбит/секКаналы : 2 каналаРасположение каналов : Front: L RЧастота : 48,0 КГцБитовая глубина : 16 битМетод сжатия : С потерямиРазмер потока : 125 Мбайт (1%)Заголовок : MVO, West VideoЯзык : RussianDefault : НетForced : Нет
Аудио #2Идентификатор : 3Формат : DTSФормат/Информация : Digital Theater SystemsРежим : 16Параметр Endianness формата : BigИдентификатор кодека : A_DTSПродолжительность : 1 ч. 30 м.Вид битрейта : ПостоянныйБитрейт : 755 Кбит/секКаналы : 6 каналовРасположение каналов : Front: L C R, Side: L R, LFEЧастота : 48,0 КГцБитовая глубина : 24 битМетод сжатия : С потерямиРазмер потока : 490 Мбайт (4%)Заголовок : DVO, SUPERBITЯзык : RussianDefault : ДаForced : Нет
Аудио #3Идентификатор : 4Формат : DTSФормат/Информация : Digital Theater SystemsПрофиль формата : MA / CoreРежим : 16Параметр Endianness формата : BigИдентификатор кодека : A_DTSПродолжительность : 1 ч. 30 м.Вид битрейта : ПеременныйБитрейт : Неизвестно / 1509 Кбит/секКаналы : 6 каналовРасположение каналов : Front: L C R, Side: L R, LFEЧастота : 48,0 КГцБитовая глубина : 16 битМетод сжатия : Без потерь / LossyЯзык : EnglishDefault : НетForced : Нет
Текст #1Идентификатор : 5Формат : UTF-8Идентификатор кодека : S_TEXT/UTF8Идентификатор кодека/Информация : UTF-8 Plain TextЯзык : RussianDefault : НетForced : Нет
Текст #2Идентификатор : 6Формат : UTF-8Идентификатор кодека : S_TEXT/UTF8Идентификатор кодека/Информация : UTF-8 Plain TextЗаголовок : SDHЯзык : EnglishDefault : НетForced : Нет
Меню00:00:00.000 : :Chapter 0100:07:27.029 : :Chapter 0200:13:32.770 : :Chapter 0300:18:45.290 : :Chapter 0400:24:20.041 : :Chapter 0500:30:55.812 : :Chapter 0600:37:31.207 : :Chapter 0700:42:02.728 : :Chapter 0800:48:14.850 : :Chapter 0900:55:03.508 : :Chapter 1001:00:39.594 : :Chapter 1101:04:28.072 : :Chapter 1201:08:21.514 : :Chapter 1301:14:52.321 : :Chapter 1401:21:23.086 : :Chapter 15

Скриншоты


Дополнительно

Цитата:
Релиз доступен благодаря проекту GORESEWAGE!
Цитата:
MVO, West Video взято отсюда: thx
DVO, SUPERBIT взято отсюда: thx
Цитата:
В 5.1 дороге от West Video во фронтах и тылах была приглушенная оригинальная речь, чего не наблюдалось в оригинальной 5.1 дороге. Поэтому дорожка была пережата в стерео.
Other forum [Profile] [PM]
Display posts from previous:    
Reply to topic

The time now is: Today 09:24

All times are GMT + 3 Hours



You cannot post new topics in this forum
You cannot reply to topics in this forum
You cannot edit your posts in this forum
You cannot delete your posts in this forum
You cannot vote in polls in this forum
You cannot attach files in this forum
You cannot download files in this forum