Today is a free download without charge Download

Пес Барбос и необычный кросс, Самогонщики, «Сто грамм» для храбрости (1961-1976) BDRip [720p]

Reply to topic
 
Author
Message

UndegraundMen ®

Longevity: 6 years 2 months

Posts: 25150

Торрент-статистика

Post 25-Apr-2013 00:02

[Quote]

Пес Барбос и необычный кросс, Самогонщики, «Сто грамм» для храбрости (1961-1976) BDRip-- Русское название: Пес Барбос и необычный кросс, Самогонщики, «Сто грамм» для храбрости
Год выпуска: 1961-1976
Страна: СССР
Жанр: короткометражный, комедия
Описание фильма:
В сборник вошли три новеллы: "Пес Барбос и необычный кросс" - рассказ о наказании постигшем на рыбалке троицу горе-браконьеров..., "Самогонщики" - Трус, Балбес и Бывалый решают поставить на широкую ногу изготовление самогона - и снова фиаско..., "Сто грамм для храбрости" - три сатирические новеллы антиалкогольной тематики...
Что есть главное средство для поддержания мужской дружбы и просто для увлекательного времяпрепровождения? Правильно, это рыбалка. Трус,
Балбес и Бывалый решили испытать эту радость жизни на себе, но на свою беду взяли они с собой пса Барбоса…
Трус, Балбес и Бывалый решают поставить на широкую ногу изготовление самогона — и снова фиаско…
История про очень застенчивого человека, который, отправившись на первое свидание с любимой женщиной, решает для бодрости духа выпить «сто грамм»…
Полная реставрация изображения и звука. Исходные киноматериалы подготовлены Госфильмофондом России. Покадровая цифровая реставрация изображения, ремастеринг звука и авторинг проведены объединением «Крупный план».
Режиссер: Леонид Гайдай | Борис Бушмелёв, Анатолий Маркелов, Георгий Щукин
Актеры: Евгений Моргунов, Юрий Никулин, Георгий Вицин | Игорь Ясулович, Юрий Кузьменков, Юрий Белов, Рина Зеленая, Владимир Басов, Михаил Светин, Гоги Кавтарадзе, Валентина Титова, Абессалом Лория, Анастасия Георгиевская ...
Продолжительность: 00:10:28
Код:
[b]Пес Барбос и необычный кросс (1961):[/b]
[b]Дата мировой премьеры:[/b] 18 октября 1961 [kp]http://www.kinopoisk.ru/film/161339/[/kp]
Продолжительность: 00:18:58
Код:
[b]Самогонщики (1961):[/b]
[b]Дата мировой премьеры:[/b] 8 января 1962 [kp]http://www.kinopoisk.ru/film/43608/[/kp]
Продолжительность: 01:14:59
Код:
[b]«Сто грамм» для храбрости: (1976)[/b]
[b]Дата мировой премьеры:[/b] 23 мая 1977 [kp]http://www.kinopoisk.ru/film/46785/[/kp][size=16]12+[/size]
Релиз группа: MediaClub
Качество видео: BDRip
Видео: MPEG-4 AVC/H.264; ~4600-7700 kbps; 988x720, 988x720, 1280x544
Аудиокодек: AC3 5.1, 448 kbps
Самогонщики (1961)
«Сто грамм» для храбрости: (1976)

MediaInfo:

Пес Барбос и необычный кросс (1961):

Код:
General
Unique ID                                : 250174209452648362475346624633661617044 (0xBC35CCD54EEB1E6D9446C61C5C98F394)
Complete name                            : :\\Пес.барбос.Самогонщики.100\Пес-Барбос.и.необычный.кросс.1961.BDRip.720p.mkv
Format                                   : Matroska
Format version                           : Version 4 / Version 2
File size                                : 610 MiB
Duration                                 : 10mn 28s
Overall bit rate                         : 8 151 Kbps
Movie name                               : = MediaClub = rip by Painter
Encoded date                             : UTC 2013-04-22 23:28:24
Writing application                      : mkvmerge v6.0.0 ('Coming Up For Air') built on Jan 20 2013 09:52:00
Writing library                          : libebml v1.3.0 + libmatroska v1.4.0
Video
ID                                       : 1
Format                                   : AVC
Format/Info                              : Advanced Video Codec
Format profile                           : [url=mailto:[email protected]][email protected][/url]
Format settings, CABAC                   : Yes
Format settings, ReFrames                : 9 frames
Codec ID                                 : V_MPEG4/ISO/AVC
Duration                                 : 10mn 28s
Bit rate                                 : 7 700 Kbps
Width                                    : 988 pixels
Height                                   : 720 pixels
Display aspect ratio                     : 1.372
Frame rate mode                          : Constant
Frame rate                               : 23.976 fps
Color space                              : YUV
Chroma subsampling                       : 4:2:0
Bit depth                                : 8 bits
Scan type                                : Progressive
Bits/(Pixel*Frame)                       : 0.451
Stream size                              : 565 MiB (93%)
Writing library                          : x264 core 130 r2273 b3065e6
Encoding settings                        : cabac=1 / ref=9 / deblock=1:-2:-2 / analyse=0x3:0x133 / me=umh / subme=11 / psy=1 / psy_rd=1.00:0.20 / mixed_ref=1 / me_range=48 / chroma_me=1 / trellis=2 / 8x8dct=1 / cqm=0 / deadzone=21,11 / fast_pskip=0 / chroma_qp_offset=-3 / threads=3 / lookahead_threads=1 / sliced_threads=0 / nr=0 / decimate=0 / interlaced=0 / bluray_compat=0 / constrained_intra=0 / bframes=7 / b_pyramid=2 / b_adapt=2 / b_bias=0 / direct=3 / weightb=1 / open_gop=0 / weightp=2 / keyint=240 / keyint_min=23 / scenecut=40 / intra_refresh=0 / rc=2pass / mbtree=0 / bitrate=7700 / ratetol=1.0 / qcomp=0.60 / qpmin=0 / qpmax=69 / qpstep=4 / cplxblur=20.0 / qblur=0.5 / ip_ratio=1.40 / pb_ratio=1.30 / aq=1:1.00
Language                                 : Russian
Default                                  : Yes
Forced                                   : No
Audio
ID                                       : 2
Format                                   : AC-3
Format/Info                              : Audio Coding 3
Mode extension                           : CM (complete main)
Format settings, Endianness              : Big
Codec ID                                 : A_AC3
Duration                                 : 10mn 28s
Bit rate mode                            : Constant
Bit rate                                 : 448 Kbps
Channel(s)                               : 6 channels
Channel positions                        : Front: L C R, Side: L R, LFE
Sampling rate                            : 48.0 KHz
Bit depth                                : 16 bits
Compression mode                         : Lossy
Stream size                              : 33.5 MiB (5%)
Language                                 : Russian
Default                                  : Yes
Forced                                   : No

Самогонщики (1961):

Код:
General
Unique ID                                : 224222053387455684906505640687590013100 (0xA8AF98C0178544748FF4C29B1A3178AC)
Complete name                            : :\\Пес.барбос.Самогонщики.100\Самогонщики.1961.BDRip.720p.mkv
Format                                   : Matroska
Format version                           : Version 4 / Version 2
File size                                : 1.07 GiB
Duration                                 : 18mn 58s
Overall bit rate                         : 8 049 Kbps
Movie name                               : = MediaClub = rip by Painter
Encoded date                             : UTC 2013-04-23 00:05:58
Writing application                      : mkvmerge v6.0.0 ('Coming Up For Air') built on Jan 20 2013 09:52:00
Writing library                          : libebml v1.3.0 + libmatroska v1.4.0
Video
ID                                       : 1
Format                                   : AVC
Format/Info                              : Advanced Video Codec
Format profile                           : [url=mailto:[email protected]][email protected][/url]
Format settings, CABAC                   : Yes
Format settings, ReFrames                : 9 frames
Codec ID                                 : V_MPEG4/ISO/AVC
Duration                                 : 18mn 58s
Bit rate                                 : 7 600 Kbps
Width                                    : 988 pixels
Height                                   : 720 pixels
Display aspect ratio                     : 1.372
Frame rate mode                          : Constant
Frame rate                               : 23.976 fps
Color space                              : YUV
Chroma subsampling                       : 4:2:0
Bit depth                                : 8 bits
Scan type                                : Progressive
Bits/(Pixel*Frame)                       : 0.446
Stream size                              : 1 010 MiB (92%)
Writing library                          : x264 core 130 r2273 b3065e6
Encoding settings                        : cabac=1 / ref=9 / deblock=1:-2:-2 / analyse=0x3:0x133 / me=umh / subme=11 / psy=1 / psy_rd=1.00:0.20 / mixed_ref=1 / me_range=48 / chroma_me=1 / trellis=2 / 8x8dct=1 / cqm=0 / deadzone=21,11 / fast_pskip=0 / chroma_qp_offset=-3 / threads=3 / lookahead_threads=1 / sliced_threads=0 / nr=0 / decimate=0 / interlaced=0 / bluray_compat=0 / constrained_intra=0 / bframes=7 / b_pyramid=2 / b_adapt=2 / b_bias=0 / direct=3 / weightb=1 / open_gop=0 / weightp=2 / keyint=240 / keyint_min=23 / scenecut=40 / intra_refresh=0 / rc=2pass / mbtree=0 / bitrate=7600 / ratetol=1.0 / qcomp=0.60 / qpmin=0 / qpmax=69 / qpstep=4 / cplxblur=20.0 / qblur=0.5 / ip_ratio=1.40 / pb_ratio=1.30 / aq=1:1.00
Language                                 : Russian
Default                                  : Yes
Forced                                   : No
Audio
ID                                       : 2
Format                                   : AC-3
Format/Info                              : Audio Coding 3
Mode extension                           : CM (complete main)
Format settings, Endianness              : Big
Codec ID                                 : A_AC3
Duration                                 : 18mn 58s
Bit rate mode                            : Constant
Bit rate                                 : 448 Kbps
Channel(s)                               : 6 channels
Channel positions                        : Front: L C R, Side: L R, LFE
Sampling rate                            : 48.0 KHz
Bit depth                                : 16 bits
Compression mode                         : Lossy
Delay relative to video                  : 10ms
Stream size                              : 60.8 MiB (6%)
Language                                 : Russian
Default                                  : Yes
Forced                                   : No

«Сто грамм» для храбрости (1976):

Код:
General
Unique ID                                : 209429874608038214330607865870606302934 (0x9D8EBA076AFCD3AC9A8C03452F3A7ED6)
Complete name                            : :\\Пес.барбос.Самогонщики.100\Сто.грамм. для.храбрости.1976.BDRip.720p.mkv
Format                                   : Matroska
Format version                           : Version 4 / Version 2
File size                                : 2.41 GiB
Duration                                 : 1h 14mn
Overall bit rate                         : 4 602 Kbps
Movie name                               : = MediaClub = rip by Painter
Encoded date                             : UTC 2013-04-23 14:00:40
Writing application                      : mkvmerge v6.0.0 ('Coming Up For Air') built on Jan 20 2013 09:52:00
Writing library                          : libebml v1.3.0 + libmatroska v1.4.0
Video
ID                                       : 1
Format                                   : AVC
Format/Info                              : Advanced Video Codec
Format profile                           : [url=mailto:[email protected]][email protected][/url]
Format settings, CABAC                   : Yes
Format settings, ReFrames                : 9 frames
Codec ID                                 : V_MPEG4/ISO/AVC
Duration                                 : 1h 14mn
Bit rate                                 : 4 150 Kbps
Width                                    : 1 280 pixels
Height                                   : 544 pixels
Display aspect ratio                     : 2.35:1
Frame rate mode                          : Constant
Frame rate                               : 23.976 fps
Color space                              : YUV
Chroma subsampling                       : 4:2:0
Bit depth                                : 8 bits
Scan type                                : Progressive
Bits/(Pixel*Frame)                       : 0.249
Stream size                              : 2.13 GiB (88%)
Writing library                          : x264 core 130 r2273 b3065e6
Encoding settings                        : cabac=1 / ref=9 / deblock=1:-2:-2 / analyse=0x3:0x133 / me=umh / subme=11 / psy=1 / psy_rd=1.00:0.15 / mixed_ref=1 / me_range=48 / chroma_me=1 / trellis=2 / 8x8dct=1 / cqm=0 / deadzone=21,11 / fast_pskip=0 / chroma_qp_offset=-3 / threads=6 / lookahead_threads=1 / sliced_threads=0 / nr=0 / decimate=0 / interlaced=0 / bluray_compat=0 / constrained_intra=0 / bframes=7 / b_pyramid=2 / b_adapt=2 / b_bias=0 / direct=3 / weightb=1 / open_gop=0 / weightp=2 / keyint=240 / keyint_min=23 / scenecut=40 / intra_refresh=0 / rc=2pass / mbtree=0 / bitrate=4150 / ratetol=1.0 / qcomp=0.60 / qpmin=0 / qpmax=69 / qpstep=4 / cplxblur=20.0 / qblur=0.5 / ip_ratio=1.40 / pb_ratio=1.30 / aq=1:0.80
Language                                 : Russian
Default                                  : Yes
Forced                                   : No
Audio
ID                                       : 2
Format                                   : AC-3
Format/Info                              : Audio Coding 3
Mode extension                           : CM (complete main)
Format settings, Endianness              : Big
Codec ID                                 : A_AC3
Duration                                 : 1h 14mn
Bit rate mode                            : Constant
Bit rate                                 : 448 Kbps
Channel(s)                               : 6 channels
Channel positions                        : Front: L C R, Side: L R, LFE
Sampling rate                            : 48.0 KHz
Bit depth                                : 16 bits
Compression mode                         : Lossy
Stream size                              : 240 MiB (10%)
Language                                 : Russian
Default                                  : Yes
Forced                                   : No
Скриншоты:                Время раздачи: 24/7 до 3-х скачавших
Other forum [Profile] [PM]
Display posts from previous:    
Reply to topic

The time now is: Today 15:47

All times are GMT + 3 Hours



You cannot post new topics in this forum
You cannot reply to topics in this forum
You cannot edit your posts in this forum
You cannot delete your posts in this forum
You cannot vote in polls in this forum
You cannot attach files in this forum
You cannot download files in this forum