Today is a free download without charge Download

Дракула 2: Вознесение / Dracula II: Ascension (Патрик Люссье / Patrick Lussier) [2003, США, ужасы, BDRemux 1080p] MVO (R5) + Original (Eng) + Subs (Rus, Eng)

Reply to topic
 
Author
Message

Omen ®

Longevity: 8 years 5 months

Posts: 181087

Торрент-статистика

Post 24-Apr-2013 21:15

[Quote]

Дракула 2: Вознесение / Dracula II: Ascension

-
-Страна: США
Студия: Dimension Films
Жанр: Ужасы
Год выпуска: 2003
Продолжительность: 01:24:53--Перевод: Профессиональный (многоголосый закадровый) R5
Cубтитры: русские, английские
Оригинальная аудиодорожка: английский--Режиссер: Патрик Люссье / Patrick Lussier
В ролях: Джейсон Скотт Ли, Дженифер Кролл, Крэйг Шеффер, Дайан Нил, Хари Пэйтон, Бранд Родерик, Джейсон Лондон, Крис Хантер, Том Кэйн, Джон Лайт--Описание: История о группе студентов-медиков, которые случайно наталкиваются на тело самого печально известного вампира. Когда появляется таинственный незнакомец и предлагает им 300 миллионов долларов за то, чтобы выставить его кровь на аукцион, они едва ли могут отказаться от такого предложения.
Соблазн богатства вступает в противоречие с невообразимым ужасом… Они еще не знают, что окажутся безжалостно преследуемыми убийцей вампиров из Ватикана.--imdb | kinopoisk | Сэмпл--Тип релиза: BDRemux 1080p [Dracula Wes Craven 4 Film Series 2000-2005 1080i/p Blu-ray AVC DTS-HD MA 2 0/5 1]
Контейнер: MKV
Видео: MPEG-4 AVC / 13992 kbps / 1920x1080 / 23,976 fps / 16:9 / High Profile 4.1
Аудио 1: AC3 / 5.1 / 48 kHz / 448 kbps / 16 bits |MVO, R5|
Аудио 2: AC3 / 5.1 / 48 kHz / 448 kbps / 16 bits |original, c rus DVD|
Аудио 3: DTS-HD Master Audio / 2.0 / 48 kHz / 1709 kbps / 24 bits (DTS Core: 2.0 / 48 kHz / 768 kbps / 24 bits) |original|
Формат субтитров: softsub [SRT]

MediaInfo

ОбщееУникальный идентификатор : 218634049798361072690269468390118949402 (0xA47B62E6FA25780AA853D51FF8C4821A)Полное имя : G:\HD\Дракула 2.Вознесение.2003.Blu-Ray.Remux.(1080p).mkvФормат : MatroskaВерсия формата : Version 2Размер файла : 9,84 ГбайтПродолжительность : 1 ч. 24 м.Режим общего битрейта : ПеременныйОбщий поток : 16,6 Мбит/секДата кодирования : UTC 2013-04-24 10:05:16Программа кодирования : mkvmerge v5.8.0 ('No Sleep / Pillow') built on Sep 2 2012 15:37:04Библиотека кодирования : libebml v1.2.3 + libmatroska v1.3.0
ВидеоИдентификатор : 1Формат : AVCФормат/Информация : Advanced Video CodecПрофиль формата : [email protected]Параметр CABAC формата : ДаПараметр ReFrames формата : 4 кадраПараметр GOP формата : M=3, N=24Режим смешивания : Container [email protected]Идентификатор кодека : V_MPEG4/ISO/AVCПродолжительность : 1 ч. 24 м.Вид битрейта : ПеременныйМаксимальный битрейт : 36,5 Мбит/секШирина : 1920 пикселейВысота : 1080 пикселейСоотношение сторон : 16:9Режим частоты кадров : ПостоянныйЧастота кадров : 23,976 кадра/секСтандарт вещания : NTSCЦветовое пространство : YUVСубдискретизация насыщенности : 4:2:0Битовая глубина : 8 битТип развёртки : ПрогрессивнаяDefault : ДаForced : Нет
Аудио #1Идентификатор : 2Формат : AC-3Формат/Информация : Audio Coding 3Расширение режима : CM (complete main)Параметр Endianness формата : BigИдентификатор кодека : A_AC3Продолжительность : 1 ч. 24 м.Вид битрейта : ПостоянныйБитрейт : 448 Кбит/секКаналы : 6 каналовРасположение каналов : Front: L C R, Side: L R, LFEЧастота : 48,0 КГцБитовая глубина : 16 битМетод сжатия : С потерямиРазмер потока : 272 Мбайт (3%)Заголовок : MVO, R5Язык : RussianDefault : ДаForced : Нет
Аудио #2Идентификатор : 3Формат : AC-3Формат/Информация : Audio Coding 3Расширение режима : CM (complete main)Параметр Endianness формата : BigИдентификатор кодека : A_AC3Продолжительность : 1 ч. 24 м.Вид битрейта : ПостоянныйБитрейт : 448 Кбит/секКаналы : 6 каналовРасположение каналов : Front: L C R, Side: L R, LFEЧастота : 48,0 КГцБитовая глубина : 16 битМетод сжатия : С потерямиРазмер потока : 272 Мбайт (3%)Заголовок : Eng c rus DVDЯзык : EnglishDefault : НетForced : Нет
Аудио #3Идентификатор : 4Формат : DTSФормат/Информация : Digital Theater SystemsПрофиль формата : MA / CoreРежим : 16Параметр Endianness формата : BigИдентификатор кодека : A_DTSПродолжительность : 1 ч. 24 м.Вид битрейта : ПеременныйБитрейт : Неизвестно / 768 Кбит/секКаналы : 2 каналаРасположение каналов : Front: L RЧастота : 48,0 КГцБитовая глубина : 24 битМетод сжатия : Без потерь / LossyЗаголовок : Eng c BlurayЯзык : EnglishDefault : НетForced : Нет
Текст #1Идентификатор : 5Формат : UTF-8Идентификатор кодека : S_TEXT/UTF8Идентификатор кодека/Информация : UTF-8 Plain TextЯзык : RussianDefault : НетForced : Нет
Текст #2Идентификатор : 6Формат : UTF-8Идентификатор кодека : S_TEXT/UTF8Идентификатор кодека/Информация : UTF-8 Plain TextЯзык : EnglishDefault : НетForced : Нет
Меню00:00:00.000 : :Chapter 0100:06:21.339 : :Chapter 0200:12:00.553 : :Chapter 0300:17:20.748 : :Chapter 0400:21:56.648 : :Chapter 0500:27:00.368 : :Chapter 0600:32:33.910 : :Chapter 0700:41:29.069 : :Chapter 0800:46:21.737 : :Chapter 0900:50:55.052 : :Chapter 1000:54:35.230 : :Chapter 1100:59:59.178 : :Chapter 1201:04:20.273 : :Chapter 1301:09:38.424 : :Chapter 1401:15:40.202 : :Chapter 15

Скриншоты


Дополнительно

Цитата:
Релиз доступен благодаря проекту GORESEWAGE!
Цитата:
MVO и оригианл 5.1 взяты отсюда: thx
Other forum [Profile] [PM]
Display posts from previous:    
Reply to topic

The time now is: Today 06:40

All times are GMT + 3 Hours



You cannot post new topics in this forum
You cannot reply to topics in this forum
You cannot edit your posts in this forum
You cannot delete your posts in this forum
You cannot vote in polls in this forum
You cannot attach files in this forum
You cannot download files in this forum