Today is a free download without charge Download

Тутси / Tootsie (Сидни Поллак / Sydney Pollack) [1982, США, драма, мелодрама, комедия, Blu-ray Disc 1080p] [CEE]

Reply to topic
 
Author
Message

Omen ®

Longevity: 8 years 5 months

Posts: 181087

Торрент-статистика

Post 23-Apr-2013 20:28

[Quote]

Тутси / Tootsie- Год выпуска: 1982
Страна: США
Жанр: драма, мелодрама, комедия
Продолжительность: 01:56:21
Перевод: Профессиональный (многоголосый, закадровый)
Оригинальная звуковая дорожка: English
Cубтитры: Английские, арабские, китайские, датские, финские, французские, итальянские, немецкие, японские, норвежские, русские, испанские, шведские, итальянские, чешские, греческие, иврит, хинди, венгерские, корейские, польские, португальские-Режиссер: Сидни Поллак / Sydney Pollack
В ролях: Дастин Хоффман, Джессика Лэнг, Тери Гарр, Дэбни Коулмен, Чарльз Дёрнинг, Билл Мюррей, Сидни Поллак, Джордж Гейнс, Джина Дэвис, Дорис Белак
О фильме: Актер Майкл Дорси из-за своего характера не может удержаться ни на одной работе. Тогда он переодевается в женское платье и вскоре понимает, что женщиной он больше нравится людям. Дороти-Майкл сразу получает работу. Однако у него возникают трудности с девушкой, которую любит.-*** Supplements (Русские субтитры):
• Создание фильма
• Пробы Дастина Хоффмана
• Удаленные сцены
Релиз:
Качество: Blu Ray
Формат: BDMV
Видео: 1920x1080p / 23,976 fps / 16:9 /MPEG-4 AVC Video, High Profile 4.1 ~ 27948 kbps
Аудио #01: DTS-HD Master Audio English 2110 kbps 5.0 / 48 kHz / 2110 kbps / 16-bit (DTS Core: 5.0 / 48 kHz / 1509 kbps / 16-bit)
Аудио #02: Czech: 48 kHz, AC3, 2/0 (L,R), ~192.00 kbps avg
Аудио #03: French: 48 kHz, AC3, 2/0 (L,R), ~192.00 kbps avg
Аудио #04: German: 48 kHz, AC3, 2/0 (L,R), ~192.00 kbps avg
Аудио #05: Hungarian: 48 kHz, AC3, 2/0 (L,R), ~192.00 kbps avg
Аудио #06: Italian: 48 kHz, AC3, 2/0 (L,R), ~192.00 kbps avg
Аудио #07: Czech: 48 kHz, AC3, 2/0 (L,R), ~192.00 kbps avg
Аудио #08: Japanese: 48 kHz, AC3 Dolby Digital, 3/2 (L,C,R,l,r), ~640.00 kbps avg
Аудио #09: Russian: 48 kHz, AC3 Dolby Digital, 3/2 (L,C,R,l,r) , ~640.00 kbps avg
Аудио #10: Spanish: 48 kHz, AC3, 2/0 (L,R), ~192.00 kbps avg
Аудио #11: Spanish: 48 kHz, AC3 Dolby Digital, 3/2 (L,C,R,l,r), ~640.00 kbps avg
Семпл-

Скриншоты


-

BDInfo

Disc Title:
Disc Size: 36 531 677 453 bytes
Protection: AACS
BD-Java: Yes
BDInfo: 0.5.3
Notes:
BDINFO HOME:
Cinema Squid
http://www.cinemasquid.com/blu-ray/tools/bdinfo
INCLUDES FORUMS REPORT FOR:
AVS Forum Blu-ray Audio and Video Specifications Thread
http://www.avsforum.com/avs-vb/showthread.php?t=1155731
********************
PLAYLIST: 00001.MPLS
********************
Код:
Total   Video
Title                                                           Codec   Length  Movie Size      Disc Size       Bitrate Bitrate Main Audio Track                          Secondary Audio Track
-----                                                           ------  ------- --------------  --------------  ------- ------- ------------------                        ---------------------
00001.MPLS                                                      AVC     1:56:21 31 759 712 256  36 531 677 453  36,39   27,95   DTS-HD Master 5.0 2110Kbps (48kHz/16-bit)
Код:
DISC INFO:
Disc Title:
Disc Size:      36 531 677 453 bytes
Protection:     AACS
BD-Java:        Yes
BDInfo:         0.5.3
PLAYLIST REPORT:
Name:                   00001.MPLS
Length:                 1:56:21 (h:m:s)
Size:                   31 759 712 256 bytes
Total Bitrate:          36,39 Mbps
(*) Indicates included stream hidden by this playlist.
VIDEO:
Codec                   Bitrate             Description
-----                   -------             -----------
MPEG-4 AVC Video        27948 kbps          1080p / 23,976 fps / 16:9 / High Profile 4.1
AUDIO:
Codec                           Language        Bitrate         Description
-----                           --------        -------         -----------
DTS-HD Master Audio             English         2110 kbps       5.0 / 48 kHz / 2110 kbps / 16-bit (DTS Core: 5.0 / 48 kHz / 1509 kbps / 16-bit)
Dolby Digital Audio             Japanese        640 kbps        5.0 / 48 kHz / 640 kbps
Dolby Digital Audio             Russian         640 kbps        5.0 / 48 kHz / 640 kbps
Dolby Digital Audio             Spanish         640 kbps        5.0 / 48 kHz / 640 kbps
Dolby Digital Audio             Czech           192 kbps        2.0 / 48 kHz / 192 kbps
Dolby Digital Audio             French          192 kbps        2.0 / 48 kHz / 192 kbps
Dolby Digital Audio             German          192 kbps        2.0 / 48 kHz / 192 kbps
Dolby Digital Audio             Hungarian       192 kbps        2.0 / 48 kHz / 192 kbps
Dolby Digital Audio             Italian         192 kbps        2.0 / 48 kHz / 192 kbps
Dolby Digital Audio             Spanish         192 kbps        2.0 / 48 kHz / 192 kbps
SUBTITLES:
Codec                           Language        Bitrate         Description
-----                           --------        -------         -----------
Presentation Graphics           English         46,271 kbps
* Presentation Graphics         English         46,282 kbps
Presentation Graphics           English         36,509 kbps
Presentation Graphics           Arabic          22,279 kbps
Presentation Graphics           Chinese         40,866 kbps
Presentation Graphics           Chinese         38,931 kbps
Presentation Graphics           Czech           40,343 kbps
Presentation Graphics           Danish          35,403 kbps
Presentation Graphics           Finnish         33,014 kbps
Presentation Graphics           French          43,007 kbps
Presentation Graphics           German          47,683 kbps
Presentation Graphics           Greek           43,332 kbps
Presentation Graphics           Hebrew          32,931 kbps
Presentation Graphics           Hindi           36,234 kbps
Presentation Graphics           Hungarian       42,225 kbps
Presentation Graphics           Italian         44,914 kbps
Presentation Graphics           Japanese        29,108 kbps
Presentation Graphics           Japanese        0,622 kbps
Presentation Graphics           Korean          30,086 kbps
Presentation Graphics           Norwegian       31,126 kbps
Presentation Graphics           Polish          38,234 kbps
Presentation Graphics           Portuguese      45,220 kbps
Presentation Graphics           Russian         48,750 kbps
Presentation Graphics           Spanish         43,006 kbps
Presentation Graphics           Spanish         50,320 kbps
Presentation Graphics           Swedish         32,189 kbps
FILES:
Name            Time In         Length          Size            Total Bitrate
----            -------         ------          ----            -------------
00001.M2TS      0:00:00.000     1:56:21.975     31 759 712 256  36 391
CHAPTERS:
Number          Time In         Length          Avg Video Rate  Max 1-Sec Rate  Max 1-Sec Time  Max 5-Sec Rate  Max 5-Sec Time  Max 10Sec Rate  Max 10Sec Time  Avg Frame Size  Max Frame Size  Max Frame Time
------          -------         ------          --------------  --------------  --------------  --------------  --------------  --------------  --------------  --------------  --------------  --------------
1               0:00:00.000     0:06:17.377     26 673 kbps     38 737 kbps     00:00:24.232    31 361 kbps     00:02:01.496    30 815 kbps     00:00:11.052    139 043 bytes   479 855 bytes   00:00:24.691
2               0:06:17.377     0:08:07.737     26 761 kbps     38 746 kbps     00:07:05.007    30 594 kbps     00:07:50.970    29 926 kbps     00:07:50.970    139 520 bytes   515 624 bytes   00:09:27.483
3               0:14:25.114     0:06:02.403     28 549 kbps     36 327 kbps     00:20:02.868    33 159 kbps     00:16:28.654    32 411 kbps     00:16:23.649    148 840 bytes   472 322 bytes   00:18:07.836
4               0:20:27.517     0:04:58.298     27 801 kbps     37 191 kbps     00:24:28.425    32 295 kbps     00:24:51.615    31 104 kbps     00:24:51.615    144 940 bytes   535 398 bytes   00:25:25.732
5               0:25:25.815     0:06:54.080     27 892 kbps     37 975 kbps     00:28:28.915    31 956 kbps     00:28:52.355    31 831 kbps     00:28:47.183    145 415 bytes   528 276 bytes   00:25:26.525
6               0:32:19.896     0:10:29.920     29 210 kbps     38 957 kbps     00:39:07.636    33 733 kbps     00:37:40.883    33 499 kbps     00:37:18.319    152 288 bytes   488 102 bytes   00:42:49.733
7               0:42:49.817     0:04:58.089     29 255 kbps     37 804 kbps     00:43:53.380    31 522 kbps     00:45:59.965    31 076 kbps     00:45:54.960    152 520 bytes   486 554 bytes   00:43:53.422
8               0:47:47.906     0:09:24.981     29 195 kbps     38 279 kbps     00:53:20.030    32 432 kbps     00:56:17.373    31 935 kbps     00:56:17.290    152 209 bytes   485 323 bytes   00:56:19.167
9               0:57:12.887     0:07:44.881     28 557 kbps     40 405 kbps     00:58:18.953    35 263 kbps     00:58:19.245    34 541 kbps     00:58:17.118    148 882 bytes   522 668 bytes   00:58:26.586
10              1:04:57.768     0:11:43.494     25 967 kbps     36 734 kbps     01:06:20.935    33 062 kbps     01:05:00.521    31 842 kbps     01:06:40.413    135 380 bytes   568 271 bytes   01:06:53.759
11              1:16:41.263     0:07:38.374     28 439 kbps     35 190 kbps     01:18:12.229    31 101 kbps     01:21:03.108    30 555 kbps     01:20:58.144    148 268 bytes   483 728 bytes   01:17:36.360
12              1:24:19.637     0:05:01.843     27 346 kbps     32 377 kbps     01:26:37.150    30 048 kbps     01:26:34.063    29 276 kbps     01:26:33.688    142 572 bytes   415 658 bytes   01:24:22.015
13              1:29:21.481     0:12:03.347     27 712 kbps     35 595 kbps     01:41:22.326    30 703 kbps     01:33:50.333    29 807 kbps     01:40:49.918    144 478 bytes   440 138 bytes   01:36:02.423
14              1:41:24.828     0:04:55.461     29 153 kbps     39 215 kbps     01:44:31.640    33 159 kbps     01:42:25.514    32 310 kbps     01:44:39.773    151 990 bytes   491 755 bytes   01:44:55.956
15              1:46:20.290     0:03:25.705     26 891 kbps     34 092 kbps     01:46:26.838    31 447 kbps     01:46:34.971    30 716 kbps     01:46:29.966    140 195 bytes   481 781 bytes   01:46:33.678
16              1:49:45.996     0:06:35.978     28 244 kbps     36 427 kbps     01:50:29.748    32 079 kbps     01:53:42.565    30 991 kbps     01:53:37.560    147 268 bytes   542 582 bytes   01:55:46.773
STREAM DIAGNOSTICS:
File            PID             Type            Codec           Language                Seconds                 Bitrate                 Bytes           Packets
----            ---             ----            -----           --------                --------------          --------------          -------------   -----
00001.M2TS      4113 (0x1011)   0x1B            AVC                                     6981,892                27 948                  24 391 190 995  132 659 503
00001.M2TS      4352 (0x1100)   0x86            DTS-HD MA       eng (English)           6981,892                2 110                   1 841 565 136   11 166 520
00001.M2TS      4353 (0x1101)   0x81            AC3             ces (Czech)             6981,892                192                     167 567 616     1 090 935
00001.M2TS      4354 (0x1102)   0x81            AC3             fra (French)            6981,892                192                     167 567 616     1 090 935
00001.M2TS      4355 (0x1103)   0x81            AC3             deu (German)            6981,892                192                     167 567 616     1 090 935
00001.M2TS      4356 (0x1104)   0x81            AC3             hun (Hungarian)         6981,892                192                     167 567 616     1 090 935
00001.M2TS      4357 (0x1105)   0x81            AC3             ita (Italian)           6981,892                192                     167 567 616     1 090 935
00001.M2TS      4358 (0x1106)   0x81            AC3             jpn (Japanese)          6981,892                640                     558 558 720     3 272 805
00001.M2TS      4359 (0x1107)   0x81            AC3             rus (Russian)           6981,892                640                     558 558 720     3 272 805
00001.M2TS      4360 (0x1108)   0x81            AC3             spa (Spanish)           6981,892                192                     167 567 616     1 090 935
00001.M2TS      4361 (0x1109)   0x81            AC3             spa (Spanish)           6981,892                640                     558 558 720     3 272 805
00001.M2TS      4608 (0x1200)   0x90            PGS             eng (English)           6981,892                46                      40 383 027      231 086
00001.M2TS      4609 (0x1201)   0x90            PGS             eng (English)           6981,892                46                      40 392 564      231 137
00001.M2TS      4610 (0x1202)   0x90            PGS             eng (English)           6981,892                37                      31 862 938      185 799
00001.M2TS      4611 (0x1203)   0x90            PGS             ara (Arabic)            6981,892                22                      19 444 205      117 347
00001.M2TS      4612 (0x1204)   0x90            PGS             zho (Chinese)           6981,892                41                      35 665 494      205 578
00001.M2TS      4613 (0x1205)   0x90            PGS             zho (Chinese)           6981,892                39                      33 977 000      196 343
00001.M2TS      4614 (0x1206)   0x90            PGS             ces (Czech)             6981,892                40                      35 209 518      202 877
00001.M2TS      4615 (0x1207)   0x90            PGS             dan (Danish)            6981,892                35                      30 897 595      175 697
00001.M2TS      4616 (0x1208)   0x90            PGS             fin (Finnish)           6981,892                33                      28 813 110      164 168
00001.M2TS      4617 (0x1209)   0x90            PGS             fra (French)            6981,892                43                      37 534 072      215 523
00001.M2TS      4618 (0x120A)   0x90            PGS             deu (German)            6981,892                48                      41 614 778      237 713
00001.M2TS      4619 (0x120B)   0x90            PGS             ell (Greek)             6981,892                43                      37 817 650      217 072
00001.M2TS      4620 (0x120C)   0x90            PGS             heb (Hebrew)            6981,892                33                      28 740 420      167 893
00001.M2TS      4621 (0x120D)   0x90            PGS             hin (Hindi)             6981,892                36                      31 622 885      183 608
00001.M2TS      4622 (0x120E)   0x90            PGS             hun (Hungarian)         6981,892                42                      36 851 335      211 976
00001.M2TS      4623 (0x120F)   0x90            PGS             ita (Italian)           6981,892                45                      39 198 354      224 586
00001.M2TS      4624 (0x1210)   0x90            PGS             jpn (Japanese)          6981,892                29                      25 403 805      147 929
00001.M2TS      4625 (0x1211)   0x90            PGS             kor (Korean)            6981,892                30                      26 257 361      154 454
00001.M2TS      4626 (0x1212)   0x90            PGS             nor (Norwegian)         6981,892                31                      27 165 335      154 739
00001.M2TS      4627 (0x1213)   0x90            PGS             pol (Polish)            6981,892                38                      33 368 408      192 867
00001.M2TS      4628 (0x1214)   0x90            PGS             por (Portuguese)        6981,892                45                      39 465 601      226 192
00001.M2TS      4629 (0x1215)   0x90            PGS             rus (Russian)           6981,892                49                      42 546 733      242 932
00001.M2TS      4630 (0x1216)   0x90            PGS             spa (Spanish)           6981,892                43                      37 533 516      215 651
00001.M2TS      4631 (0x1217)   0x90            PGS             spa (Spanish)           6981,892                50                      43 916 415      250 823
00001.M2TS      4632 (0x1218)   0x90            PGS             swe (Swedish)           6981,892                32                      28 092 782      159 789
00001.M2TS      4633 (0x1219)   0x90            PGS             jpn (Japanese)          6981,892                1                       542 996         3 142
QUICK SUMMARY:
Disc Title:
Disc Size: 36 531 677 453 bytes
Protection: AACS
BD-Java: Yes
Playlist: 00001.MPLS
Size: 31 759 712 256 bytes
Length: 1:56:21
Total Bitrate: 36,39 Mbps
Video: MPEG-4 AVC Video / 27948 kbps / 1080p / 23,976 fps / 16:9 / High Profile 4.1
Audio: English / DTS-HD Master Audio / 5.0 / 48 kHz / 2110 kbps / 16-bit (DTS Core: 5.0 / 48 kHz / 1509 kbps / 16-bit)
Audio: Japanese / Dolby Digital Audio / 5.0 / 48 kHz / 640 kbps
Audio: Russian / Dolby Digital Audio / 5.0 / 48 kHz / 640 kbps
Audio: Spanish / Dolby Digital Audio / 5.0 / 48 kHz / 640 kbps
Audio: Czech / Dolby Digital Audio / 2.0 / 48 kHz / 192 kbps
Audio: French / Dolby Digital Audio / 2.0 / 48 kHz / 192 kbps
Audio: German / Dolby Digital Audio / 2.0 / 48 kHz / 192 kbps
Audio: Hungarian / Dolby Digital Audio / 2.0 / 48 kHz / 192 kbps
Audio: Italian / Dolby Digital Audio / 2.0 / 48 kHz / 192 kbps
Audio: Spanish / Dolby Digital Audio / 2.0 / 48 kHz / 192 kbps
Subtitle: English / 46,271 kbps
* Subtitle: English / 46,282 kbps
Subtitle: English / 36,509 kbps
Subtitle: Arabic / 22,279 kbps
Subtitle: Chinese / 40,866 kbps
Subtitle: Chinese / 38,931 kbps
Subtitle: Czech / 40,343 kbps
Subtitle: Danish / 35,403 kbps
Subtitle: Finnish / 33,014 kbps
Subtitle: French / 43,007 kbps
Subtitle: German / 47,683 kbps
Subtitle: Greek / 43,332 kbps
Subtitle: Hebrew / 32,931 kbps
Subtitle: Hindi / 36,234 kbps
Subtitle: Hungarian / 42,225 kbps
Subtitle: Italian / 44,914 kbps
Subtitle: Japanese / 29,108 kbps
Subtitle: Japanese / 0,622 kbps
Subtitle: Korean / 30,086 kbps
Subtitle: Norwegian / 31,126 kbps
Subtitle: Polish / 38,234 kbps
Subtitle: Portuguese / 45,220 kbps
Subtitle: Russian / 48,750 kbps
Subtitle: Spanish / 43,006 kbps
Subtitle: Spanish / 50,320 kbps
Subtitle: Swedish / 32,189 kbps
********************
PLAYLIST: 00002.MPLS
********************
Код:
Total   Video
Title                                                           Codec   Length  Movie Size      Disc Size       Bitrate Bitrate Main Audio Track                          Secondary Audio Track
-----                                                           ------  ------- --------------  --------------  ------- ------- ------------------                        ---------------------
00002.MPLS                                                      AVC     1:56:21 31 759 712 256  36 531 677 453  36,39   27,95   DTS-HD Master 5.0 2110Kbps (48kHz/16-bit)
Код:
DISC INFO:
Disc Title:
Disc Size:      36 531 677 453 bytes
Protection:     AACS
BD-Java:        Yes
BDInfo:         0.5.3
PLAYLIST REPORT:
Name:                   00002.MPLS
Length:                 1:56:21 (h:m:s)
Size:                   31 759 712 256 bytes
Total Bitrate:          36,39 Mbps
(*) Indicates included stream hidden by this playlist.
VIDEO:
Codec                   Bitrate             Description
-----                   -------             -----------
MPEG-4 AVC Video        27948 kbps          1080p / 23,976 fps / 16:9 / High Profile 4.1
AUDIO:
Codec                           Language        Bitrate         Description
-----                           --------        -------         -----------
DTS-HD Master Audio             English         2110 kbps       5.0 / 48 kHz / 2110 kbps / 16-bit (DTS Core: 5.0 / 48 kHz / 1509 kbps / 16-bit)
Dolby Digital Audio             Japanese        640 kbps        5.0 / 48 kHz / 640 kbps
Dolby Digital Audio             Russian         640 kbps        5.0 / 48 kHz / 640 kbps
Dolby Digital Audio             Spanish         640 kbps        5.0 / 48 kHz / 640 kbps
Dolby Digital Audio             Czech           192 kbps        2.0 / 48 kHz / 192 kbps
Dolby Digital Audio             French          192 kbps        2.0 / 48 kHz / 192 kbps
Dolby Digital Audio             German          192 kbps        2.0 / 48 kHz / 192 kbps
Dolby Digital Audio             Hungarian       192 kbps        2.0 / 48 kHz / 192 kbps
Dolby Digital Audio             Italian         192 kbps        2.0 / 48 kHz / 192 kbps
Dolby Digital Audio             Spanish         192 kbps        2.0 / 48 kHz / 192 kbps
SUBTITLES:
Codec                           Language        Bitrate         Description
-----                           --------        -------         -----------
* Presentation Graphics         English         46,271 kbps
Presentation Graphics           English         46,282 kbps
Presentation Graphics           English         36,509 kbps
Presentation Graphics           Arabic          22,279 kbps
Presentation Graphics           Chinese         40,866 kbps
Presentation Graphics           Chinese         38,931 kbps
Presentation Graphics           Czech           40,343 kbps
Presentation Graphics           Danish          35,403 kbps
Presentation Graphics           Finnish         33,014 kbps
Presentation Graphics           French          43,007 kbps
Presentation Graphics           German          47,683 kbps
Presentation Graphics           Greek           43,332 kbps
Presentation Graphics           Hebrew          32,931 kbps
Presentation Graphics           Hindi           36,234 kbps
Presentation Graphics           Hungarian       42,225 kbps
Presentation Graphics           Italian         44,914 kbps
Presentation Graphics           Japanese        29,108 kbps
Presentation Graphics           Japanese        0,622 kbps
Presentation Graphics           Korean          30,086 kbps
Presentation Graphics           Norwegian       31,126 kbps
Presentation Graphics           Polish          38,234 kbps
Presentation Graphics           Portuguese      45,220 kbps
Presentation Graphics           Russian         48,750 kbps
Presentation Graphics           Spanish         43,006 kbps
Presentation Graphics           Spanish         50,320 kbps
Presentation Graphics           Swedish         32,189 kbps
FILES:
Name            Time In         Length          Size            Total Bitrate
----            -------         ------          ----            -------------
00001.M2TS      0:00:00.000     1:56:21.975     31 759 712 256  36 391
CHAPTERS:
Number          Time In         Length          Avg Video Rate  Max 1-Sec Rate  Max 1-Sec Time  Max 5-Sec Rate  Max 5-Sec Time  Max 10Sec Rate  Max 10Sec Time  Avg Frame Size  Max Frame Size  Max Frame Time
------          -------         ------          --------------  --------------  --------------  --------------  --------------  --------------  --------------  --------------  --------------  --------------
1               0:00:00.000     0:06:17.377     26 673 kbps     38 737 kbps     00:00:24.232    31 361 kbps     00:02:01.496    30 815 kbps     00:00:11.052    139 043 bytes   479 855 bytes   00:00:24.691
2               0:06:17.377     0:08:07.737     26 761 kbps     38 746 kbps     00:07:05.007    30 594 kbps     00:07:50.970    29 926 kbps     00:07:50.970    139 520 bytes   515 624 bytes   00:09:27.483
3               0:14:25.114     0:06:02.403     28 549 kbps     36 327 kbps     00:20:02.868    33 159 kbps     00:16:28.654    32 411 kbps     00:16:23.649    148 840 bytes   472 322 bytes   00:18:07.836
4               0:20:27.517     0:04:58.298     27 801 kbps     37 191 kbps     00:24:28.425    32 295 kbps     00:24:51.615    31 104 kbps     00:24:51.615    144 940 bytes   535 398 bytes   00:25:25.732
5               0:25:25.815     0:06:54.080     27 892 kbps     37 975 kbps     00:28:28.915    31 956 kbps     00:28:52.355    31 831 kbps     00:28:47.183    145 415 bytes   528 276 bytes   00:25:26.525
6               0:32:19.896     0:10:29.920     29 210 kbps     38 957 kbps     00:39:07.636    33 733 kbps     00:37:40.883    33 499 kbps     00:37:18.319    152 288 bytes   488 102 bytes   00:42:49.733
7               0:42:49.817     0:04:58.089     29 255 kbps     37 804 kbps     00:43:53.380    31 522 kbps     00:45:59.965    31 076 kbps     00:45:54.960    152 520 bytes   486 554 bytes   00:43:53.422
8               0:47:47.906     0:09:24.981     29 195 kbps     38 279 kbps     00:53:20.030    32 432 kbps     00:56:17.373    31 935 kbps     00:56:17.290    152 209 bytes   485 323 bytes   00:56:19.167
9               0:57:12.887     0:07:44.881     28 557 kbps     40 405 kbps     00:58:18.953    35 263 kbps     00:58:19.245    34 541 kbps     00:58:17.118    148 882 bytes   522 668 bytes   00:58:26.586
10              1:04:57.768     0:11:43.494     25 967 kbps     36 734 kbps     01:06:20.935    33 062 kbps     01:05:00.521    31 842 kbps     01:06:40.413    135 380 bytes   568 271 bytes   01:06:53.759
11              1:16:41.263     0:07:38.374     28 439 kbps     35 190 kbps     01:18:12.229    31 101 kbps     01:21:03.108    30 555 kbps     01:20:58.144    148 268 bytes   483 728 bytes   01:17:36.360
12              1:24:19.637     0:05:01.843     27 346 kbps     32 377 kbps     01:26:37.150    30 048 kbps     01:26:34.063    29 276 kbps     01:26:33.688    142 572 bytes   415 658 bytes   01:24:22.015
13              1:29:21.481     0:12:03.347     27 712 kbps     35 595 kbps     01:41:22.326    30 703 kbps     01:33:50.333    29 807 kbps     01:40:49.918    144 478 bytes   440 138 bytes   01:36:02.423
14              1:41:24.828     0:04:55.461     29 153 kbps     39 215 kbps     01:44:31.640    33 159 kbps     01:42:25.514    32 310 kbps     01:44:39.773    151 990 bytes   491 755 bytes   01:44:55.956
15              1:46:20.290     0:03:25.705     26 891 kbps     34 092 kbps     01:46:26.838    31 447 kbps     01:46:34.971    30 716 kbps     01:46:29.966    140 195 bytes   481 781 bytes   01:46:33.678
16              1:49:45.996     0:06:35.978     28 244 kbps     36 427 kbps     01:50:29.748    32 079 kbps     01:53:42.565    30 991 kbps     01:53:37.560    147 268 bytes   542 582 bytes   01:55:46.773
STREAM DIAGNOSTICS:
File            PID             Type            Codec           Language                Seconds                 Bitrate                 Bytes           Packets
----            ---             ----            -----           --------                --------------          --------------          -------------   -----
00001.M2TS      4113 (0x1011)   0x1B            AVC                                     6981,892                27 948                  24 391 190 995  132 659 503
00001.M2TS      4352 (0x1100)   0x86            DTS-HD MA       eng (English)           6981,892                2 110                   1 841 565 136   11 166 520
00001.M2TS      4353 (0x1101)   0x81            AC3             ces (Czech)             6981,892                192                     167 567 616     1 090 935
00001.M2TS      4354 (0x1102)   0x81            AC3             fra (French)            6981,892                192                     167 567 616     1 090 935
00001.M2TS      4355 (0x1103)   0x81            AC3             deu (German)            6981,892                192                     167 567 616     1 090 935
00001.M2TS      4356 (0x1104)   0x81            AC3             hun (Hungarian)         6981,892                192                     167 567 616     1 090 935
00001.M2TS      4357 (0x1105)   0x81            AC3             ita (Italian)           6981,892                192                     167 567 616     1 090 935
00001.M2TS      4358 (0x1106)   0x81            AC3             jpn (Japanese)          6981,892                640                     558 558 720     3 272 805
00001.M2TS      4359 (0x1107)   0x81            AC3             rus (Russian)           6981,892                640                     558 558 720     3 272 805
00001.M2TS      4360 (0x1108)   0x81            AC3             spa (Spanish)           6981,892                192                     167 567 616     1 090 935
00001.M2TS      4361 (0x1109)   0x81            AC3             spa (Spanish)           6981,892                640                     558 558 720     3 272 805
00001.M2TS      4608 (0x1200)   0x90            PGS             eng (English)           6981,892                46                      40 383 027      231 086
00001.M2TS      4609 (0x1201)   0x90            PGS             eng (English)           6981,892                46                      40 392 564      231 137
00001.M2TS      4610 (0x1202)   0x90            PGS             eng (English)           6981,892                37                      31 862 938      185 799
00001.M2TS      4611 (0x1203)   0x90            PGS             ara (Arabic)            6981,892                22                      19 444 205      117 347
00001.M2TS      4612 (0x1204)   0x90            PGS             zho (Chinese)           6981,892                41                      35 665 494      205 578
00001.M2TS      4613 (0x1205)   0x90            PGS             zho (Chinese)           6981,892                39                      33 977 000      196 343
00001.M2TS      4614 (0x1206)   0x90            PGS             ces (Czech)             6981,892                40                      35 209 518      202 877
00001.M2TS      4615 (0x1207)   0x90            PGS             dan (Danish)            6981,892                35                      30 897 595      175 697
00001.M2TS      4616 (0x1208)   0x90            PGS             fin (Finnish)           6981,892                33                      28 813 110      164 168
00001.M2TS      4617 (0x1209)   0x90            PGS             fra (French)            6981,892                43                      37 534 072      215 523
00001.M2TS      4618 (0x120A)   0x90            PGS             deu (German)            6981,892                48                      41 614 778      237 713
00001.M2TS      4619 (0x120B)   0x90            PGS             ell (Greek)             6981,892                43                      37 817 650      217 072
00001.M2TS      4620 (0x120C)   0x90            PGS             heb (Hebrew)            6981,892                33                      28 740 420      167 893
00001.M2TS      4621 (0x120D)   0x90            PGS             hin (Hindi)             6981,892                36                      31 622 885      183 608
00001.M2TS      4622 (0x120E)   0x90            PGS             hun (Hungarian)         6981,892                42                      36 851 335      211 976
00001.M2TS      4623 (0x120F)   0x90            PGS             ita (Italian)           6981,892                45                      39 198 354      224 586
00001.M2TS      4624 (0x1210)   0x90            PGS             jpn (Japanese)          6981,892                29                      25 403 805      147 929
00001.M2TS      4625 (0x1211)   0x90            PGS             kor (Korean)            6981,892                30                      26 257 361      154 454
00001.M2TS      4626 (0x1212)   0x90            PGS             nor (Norwegian)         6981,892                31                      27 165 335      154 739
00001.M2TS      4627 (0x1213)   0x90            PGS             pol (Polish)            6981,892                38                      33 368 408      192 867
00001.M2TS      4628 (0x1214)   0x90            PGS             por (Portuguese)        6981,892                45                      39 465 601      226 192
00001.M2TS      4629 (0x1215)   0x90            PGS             rus (Russian)           6981,892                49                      42 546 733      242 932
00001.M2TS      4630 (0x1216)   0x90            PGS             spa (Spanish)           6981,892                43                      37 533 516      215 651
00001.M2TS      4631 (0x1217)   0x90            PGS             spa (Spanish)           6981,892                50                      43 916 415      250 823
00001.M2TS      4632 (0x1218)   0x90            PGS             swe (Swedish)           6981,892                32                      28 092 782      159 789
00001.M2TS      4633 (0x1219)   0x90            PGS             jpn (Japanese)          6981,892                1                       542 996         3 142
QUICK SUMMARY:
Disc Title:
Disc Size: 36 531 677 453 bytes
Protection: AACS
BD-Java: Yes
Playlist: 00002.MPLS
Size: 31 759 712 256 bytes
Length: 1:56:21
Total Bitrate: 36,39 Mbps
Video: MPEG-4 AVC Video / 27948 kbps / 1080p / 23,976 fps / 16:9 / High Profile 4.1
Audio: English / DTS-HD Master Audio / 5.0 / 48 kHz / 2110 kbps / 16-bit (DTS Core: 5.0 / 48 kHz / 1509 kbps / 16-bit)
Audio: Japanese / Dolby Digital Audio / 5.0 / 48 kHz / 640 kbps
Audio: Russian / Dolby Digital Audio / 5.0 / 48 kHz / 640 kbps
Audio: Spanish / Dolby Digital Audio / 5.0 / 48 kHz / 640 kbps
Audio: Czech / Dolby Digital Audio / 2.0 / 48 kHz / 192 kbps
Audio: French / Dolby Digital Audio / 2.0 / 48 kHz / 192 kbps
Audio: German / Dolby Digital Audio / 2.0 / 48 kHz / 192 kbps
Audio: Hungarian / Dolby Digital Audio / 2.0 / 48 kHz / 192 kbps
Audio: Italian / Dolby Digital Audio / 2.0 / 48 kHz / 192 kbps
Audio: Spanish / Dolby Digital Audio / 2.0 / 48 kHz / 192 kbps
* Subtitle: English / 46,271 kbps
Subtitle: English / 46,282 kbps
Subtitle: English / 36,509 kbps
Subtitle: Arabic / 22,279 kbps
Subtitle: Chinese / 40,866 kbps
Subtitle: Chinese / 38,931 kbps
Subtitle: Czech / 40,343 kbps
Subtitle: Danish / 35,403 kbps
Subtitle: Finnish / 33,014 kbps
Subtitle: French / 43,007 kbps
Subtitle: German / 47,683 kbps
Subtitle: Greek / 43,332 kbps
Subtitle: Hebrew / 32,931 kbps
Subtitle: Hindi / 36,234 kbps
Subtitle: Hungarian / 42,225 kbps
Subtitle: Italian / 44,914 kbps
Subtitle: Japanese / 29,108 kbps
Subtitle: Japanese / 0,622 kbps
Subtitle: Korean / 30,086 kbps
Subtitle: Norwegian / 31,126 kbps
Subtitle: Polish / 38,234 kbps
Subtitle: Portuguese / 45,220 kbps
Subtitle: Russian / 48,750 kbps
Subtitle: Spanish / 43,006 kbps
Subtitle: Spanish / 50,320 kbps
Subtitle: Swedish / 32,189 kbps
********************
PLAYLIST: 00003.MPLS
********************
Код:
Total   Video
Title                                                           Codec   Length  Movie Size      Disc Size       Bitrate Bitrate Main Audio Track                          Secondary Audio Track
-----                                                           ------  ------- --------------  --------------  ------- ------- ------------------                        ---------------------
00003.MPLS                                                      AVC     1:56:21 31 759 712 256  36 531 677 453  36,39   27,95   DTS-HD Master 5.0 2110Kbps (48kHz/16-bit)
Код:
DISC INFO:
Disc Title:
Disc Size:      36 531 677 453 bytes
Protection:     AACS
BD-Java:        Yes
BDInfo:         0.5.3
PLAYLIST REPORT:
Name:                   00003.MPLS
Length:                 1:56:21 (h:m:s)
Size:                   31 759 712 256 bytes
Total Bitrate:          36,39 Mbps
VIDEO:
Codec                   Bitrate             Description
-----                   -------             -----------
MPEG-4 AVC Video        27948 kbps          1080p / 23,976 fps / 16:9 / High Profile 4.1
AUDIO:
Codec                           Language        Bitrate         Description
-----                           --------        -------         -----------
DTS-HD Master Audio             English         2110 kbps       5.0 / 48 kHz / 2110 kbps / 16-bit (DTS Core: 5.0 / 48 kHz / 1509 kbps / 16-bit)
Dolby Digital Audio             Japanese        640 kbps        5.0 / 48 kHz / 640 kbps
Dolby Digital Audio             Russian         640 kbps        5.0 / 48 kHz / 640 kbps
Dolby Digital Audio             Spanish         640 kbps        5.0 / 48 kHz / 640 kbps
Dolby Digital Audio             Czech           192 kbps        2.0 / 48 kHz / 192 kbps
Dolby Digital Audio             French          192 kbps        2.0 / 48 kHz / 192 kbps
Dolby Digital Audio             German          192 kbps        2.0 / 48 kHz / 192 kbps
Dolby Digital Audio             Hungarian       192 kbps        2.0 / 48 kHz / 192 kbps
Dolby Digital Audio             Italian         192 kbps        2.0 / 48 kHz / 192 kbps
Dolby Digital Audio             Spanish         192 kbps        2.0 / 48 kHz / 192 kbps
SUBTITLES:
Codec                           Language        Bitrate         Description
-----                           --------        -------         -----------
Presentation Graphics           English         46,271 kbps
Presentation Graphics           English         46,282 kbps
Presentation Graphics           English         36,509 kbps
Presentation Graphics           Arabic          22,279 kbps
Presentation Graphics           Chinese         40,866 kbps
Presentation Graphics           Chinese         38,931 kbps
Presentation Graphics           Czech           40,343 kbps
Presentation Graphics           Danish          35,403 kbps
Presentation Graphics           Finnish         33,014 kbps
Presentation Graphics           French          43,007 kbps
Presentation Graphics           German          47,683 kbps
Presentation Graphics           Greek           43,332 kbps
Presentation Graphics           Hebrew          32,931 kbps
Presentation Graphics           Hindi           36,234 kbps
Presentation Graphics           Hungarian       42,225 kbps
Presentation Graphics           Italian         44,914 kbps
Presentation Graphics           Japanese        29,108 kbps
Presentation Graphics           Japanese        0,622 kbps
Presentation Graphics           Korean          30,086 kbps
Presentation Graphics           Norwegian       31,126 kbps
Presentation Graphics           Polish          38,234 kbps
Presentation Graphics           Portuguese      45,220 kbps
Presentation Graphics           Russian         48,750 kbps
Presentation Graphics           Spanish         43,006 kbps
Presentation Graphics           Spanish         50,320 kbps
Presentation Graphics           Swedish         32,189 kbps
FILES:
Name            Time In         Length          Size            Total Bitrate
----            -------         ------          ----            -------------
00001.M2TS      0:00:00.000     1:56:21.975     31 759 712 256  36 391
CHAPTERS:
Number          Time In         Length          Avg Video Rate  Max 1-Sec Rate  Max 1-Sec Time  Max 5-Sec Rate  Max 5-Sec Time  Max 10Sec Rate  Max 10Sec Time  Avg Frame Size  Max Frame Size  Max Frame Time
------          -------         ------          --------------  --------------  --------------  --------------  --------------  --------------  --------------  --------------  --------------  --------------
1               0:00:00.000     0:06:17.377     26 673 kbps     38 737 kbps     00:00:24.232    31 361 kbps     00:02:01.496    30 815 kbps     00:00:11.052    139 043 bytes   479 855 bytes   00:00:24.691
2               0:06:17.377     0:08:07.737     26 761 kbps     38 746 kbps     00:07:05.007    30 594 kbps     00:07:50.970    29 926 kbps     00:07:50.970    139 520 bytes   515 624 bytes   00:09:27.483
3               0:14:25.114     0:06:02.403     28 549 kbps     36 327 kbps     00:20:02.868    33 159 kbps     00:16:28.654    32 411 kbps     00:16:23.649    148 840 bytes   472 322 bytes   00:18:07.836
4               0:20:27.517     0:04:58.298     27 801 kbps     37 191 kbps     00:24:28.425    32 295 kbps     00:24:51.615    31 104 kbps     00:24:51.615    144 940 bytes   535 398 bytes   00:25:25.732
5               0:25:25.815     0:06:54.080     27 892 kbps     37 975 kbps     00:28:28.915    31 956 kbps     00:28:52.355    31 831 kbps     00:28:47.183    145 415 bytes   528 276 bytes   00:25:26.525
6               0:32:19.896     0:10:29.920     29 210 kbps     38 957 kbps     00:39:07.636    33 733 kbps     00:37:40.883    33 499 kbps     00:37:18.319    152 288 bytes   488 102 bytes   00:42:49.733
7               0:42:49.817     0:04:58.089     29 255 kbps     37 804 kbps     00:43:53.380    31 522 kbps     00:45:59.965    31 076 kbps     00:45:54.960    152 520 bytes   486 554 bytes   00:43:53.422
8               0:47:47.906     0:09:24.981     29 195 kbps     38 279 kbps     00:53:20.030    32 432 kbps     00:56:17.373    31 935 kbps     00:56:17.290    152 209 bytes   485 323 bytes   00:56:19.167
9               0:57:12.887     0:07:44.881     28 557 kbps     40 405 kbps     00:58:18.953    35 263 kbps     00:58:19.245    34 541 kbps     00:58:17.118    148 882 bytes   522 668 bytes   00:58:26.586
10              1:04:57.768     0:11:43.494     25 967 kbps     36 734 kbps     01:06:20.935    33 062 kbps     01:05:00.521    31 842 kbps     01:06:40.413    135 380 bytes   568 271 bytes   01:06:53.759
11              1:16:41.263     0:07:38.374     28 439 kbps     35 190 kbps     01:18:12.229    31 101 kbps     01:21:03.108    30 555 kbps     01:20:58.144    148 268 bytes   483 728 bytes   01:17:36.360
12              1:24:19.637     0:05:01.843     27 346 kbps     32 377 kbps     01:26:37.150    30 048 kbps     01:26:34.063    29 276 kbps     01:26:33.688    142 572 bytes   415 658 bytes   01:24:22.015
13              1:29:21.481     0:12:03.347     27 712 kbps     35 595 kbps     01:41:22.326    30 703 kbps     01:33:50.333    29 807 kbps     01:40:49.918    144 478 bytes   440 138 bytes   01:36:02.423
14              1:41:24.828     0:04:55.461     29 153 kbps     39 215 kbps     01:44:31.640    33 159 kbps     01:42:25.514    32 310 kbps     01:44:39.773    151 990 bytes   491 755 bytes   01:44:55.956
15              1:46:20.290     0:03:25.705     26 891 kbps     34 092 kbps     01:46:26.838    31 447 kbps     01:46:34.971    30 716 kbps     01:46:29.966    140 195 bytes   481 781 bytes   01:46:33.678
16              1:49:45.996     0:06:35.978     28 244 kbps     36 427 kbps     01:50:29.748    32 079 kbps     01:53:42.565    30 991 kbps     01:53:37.560    147 268 bytes   542 582 bytes   01:55:46.773
STREAM DIAGNOSTICS:
File            PID             Type            Codec           Language                Seconds                 Bitrate                 Bytes           Packets
----            ---             ----            -----           --------                --------------          --------------          -------------   -----
00001.M2TS      4113 (0x1011)   0x1B            AVC                                     6981,892                27 948                  24 391 190 995  132 659 503
00001.M2TS      4352 (0x1100)   0x86            DTS-HD MA       eng (English)           6981,892                2 110                   1 841 565 136   11 166 520
00001.M2TS      4353 (0x1101)   0x81            AC3             ces (Czech)             6981,892                192                     167 567 616     1 090 935
00001.M2TS      4354 (0x1102)   0x81            AC3             fra (French)            6981,892                192                     167 567 616     1 090 935
00001.M2TS      4355 (0x1103)   0x81            AC3             deu (German)            6981,892                192                     167 567 616     1 090 935
00001.M2TS      4356 (0x1104)   0x81            AC3             hun (Hungarian)         6981,892                192                     167 567 616     1 090 935
00001.M2TS      4357 (0x1105)   0x81            AC3             ita (Italian)           6981,892                192                     167 567 616     1 090 935
00001.M2TS      4358 (0x1106)   0x81            AC3             jpn (Japanese)          6981,892                640                     558 558 720     3 272 805
00001.M2TS      4359 (0x1107)   0x81            AC3             rus (Russian)           6981,892                640                     558 558 720     3 272 805
00001.M2TS      4360 (0x1108)   0x81            AC3             spa (Spanish)           6981,892                192                     167 567 616     1 090 935
00001.M2TS      4361 (0x1109)   0x81            AC3             spa (Spanish)           6981,892                640                     558 558 720     3 272 805
00001.M2TS      4608 (0x1200)   0x90            PGS             eng (English)           6981,892                46                      40 383 027      231 086
00001.M2TS      4609 (0x1201)   0x90            PGS             eng (English)           6981,892                46                      40 392 564      231 137
00001.M2TS      4610 (0x1202)   0x90            PGS             eng (English)           6981,892                37                      31 862 938      185 799
00001.M2TS      4611 (0x1203)   0x90            PGS             ara (Arabic)            6981,892                22                      19 444 205      117 347
00001.M2TS      4612 (0x1204)   0x90            PGS             zho (Chinese)           6981,892                41                      35 665 494      205 578
00001.M2TS      4613 (0x1205)   0x90            PGS             zho (Chinese)           6981,892                39                      33 977 000      196 343
00001.M2TS      4614 (0x1206)   0x90            PGS             ces (Czech)             6981,892                40                      35 209 518      202 877
00001.M2TS      4615 (0x1207)   0x90            PGS             dan (Danish)            6981,892                35                      30 897 595      175 697
00001.M2TS      4616 (0x1208)   0x90            PGS             fin (Finnish)           6981,892                33                      28 813 110      164 168
00001.M2TS      4617 (0x1209)   0x90            PGS             fra (French)            6981,892                43                      37 534 072      215 523
00001.M2TS      4618 (0x120A)   0x90            PGS             deu (German)            6981,892                48                      41 614 778      237 713
00001.M2TS      4619 (0x120B)   0x90            PGS             ell (Greek)             6981,892                43                      37 817 650      217 072
00001.M2TS      4620 (0x120C)   0x90            PGS             heb (Hebrew)            6981,892                33                      28 740 420      167 893
00001.M2TS      4621 (0x120D)   0x90            PGS             hin (Hindi)             6981,892                36                      31 622 885      183 608
00001.M2TS      4622 (0x120E)   0x90            PGS             hun (Hungarian)         6981,892                42                      36 851 335      211 976
00001.M2TS      4623 (0x120F)   0x90            PGS             ita (Italian)           6981,892                45                      39 198 354      224 586
00001.M2TS      4624 (0x1210)   0x90            PGS             jpn (Japanese)          6981,892                29                      25 403 805      147 929
00001.M2TS      4625 (0x1211)   0x90            PGS             kor (Korean)            6981,892                30                      26 257 361      154 454
00001.M2TS      4626 (0x1212)   0x90            PGS             nor (Norwegian)         6981,892                31                      27 165 335      154 739
00001.M2TS      4627 (0x1213)   0x90            PGS             pol (Polish)            6981,892                38                      33 368 408      192 867
00001.M2TS      4628 (0x1214)   0x90            PGS             por (Portuguese)        6981,892                45                      39 465 601      226 192
00001.M2TS      4629 (0x1215)   0x90            PGS             rus (Russian)           6981,892                49                      42 546 733      242 932
00001.M2TS      4630 (0x1216)   0x90            PGS             spa (Spanish)           6981,892                43                      37 533 516      215 651
00001.M2TS      4631 (0x1217)   0x90            PGS             spa (Spanish)           6981,892                50                      43 916 415      250 823
00001.M2TS      4632 (0x1218)   0x90            PGS             swe (Swedish)           6981,892                32                      28 092 782      159 789
00001.M2TS      4633 (0x1219)   0x90            PGS             jpn (Japanese)          6981,892                1                       542 996         3 142
QUICK SUMMARY:
Disc Title:
Disc Size: 36 531 677 453 bytes
Protection: AACS
BD-Java: Yes
Playlist: 00003.MPLS
Size: 31 759 712 256 bytes
Length: 1:56:21
Total Bitrate: 36,39 Mbps
Video: MPEG-4 AVC Video / 27948 kbps / 1080p / 23,976 fps / 16:9 / High Profile 4.1
Audio: English / DTS-HD Master Audio / 5.0 / 48 kHz / 2110 kbps / 16-bit (DTS Core: 5.0 / 48 kHz / 1509 kbps / 16-bit)
Audio: Japanese / Dolby Digital Audio / 5.0 / 48 kHz / 640 kbps
Audio: Russian / Dolby Digital Audio / 5.0 / 48 kHz / 640 kbps
Audio: Spanish / Dolby Digital Audio / 5.0 / 48 kHz / 640 kbps
Audio: Czech / Dolby Digital Audio / 2.0 / 48 kHz / 192 kbps
Audio: French / Dolby Digital Audio / 2.0 / 48 kHz / 192 kbps
Audio: German / Dolby Digital Audio / 2.0 / 48 kHz / 192 kbps
Audio: Hungarian / Dolby Digital Audio / 2.0 / 48 kHz / 192 kbps
Audio: Italian / Dolby Digital Audio / 2.0 / 48 kHz / 192 kbps
Audio: Spanish / Dolby Digital Audio / 2.0 / 48 kHz / 192 kbps
Subtitle: English / 46,271 kbps
Subtitle: English / 46,282 kbps
Subtitle: English / 36,509 kbps
Subtitle: Arabic / 22,279 kbps
Subtitle: Chinese / 40,866 kbps
Subtitle: Chinese / 38,931 kbps
Subtitle: Czech / 40,343 kbps
Subtitle: Danish / 35,403 kbps
Subtitle: Finnish / 33,014 kbps
Subtitle: French / 43,007 kbps
Subtitle: German / 47,683 kbps
Subtitle: Greek / 43,332 kbps
Subtitle: Hebrew / 32,931 kbps
Subtitle: Hindi / 36,234 kbps
Subtitle: Hungarian / 42,225 kbps
Subtitle: Italian / 44,914 kbps
Subtitle: Japanese / 29,108 kbps
Subtitle: Japanese / 0,622 kbps
Subtitle: Korean / 30,086 kbps
Subtitle: Norwegian / 31,126 kbps
Subtitle: Polish / 38,234 kbps
Subtitle: Portuguese / 45,220 kbps
Subtitle: Russian / 48,750 kbps
Subtitle: Spanish / 43,006 kbps
Subtitle: Spanish / 50,320 kbps
Subtitle: Swedish / 32,189 kbps
********************
PLAYLIST: 00004.MPLS
********************
Код:
Total   Video
Title                                                           Codec   Length  Movie Size      Disc Size       Bitrate Bitrate Main Audio Track                          Secondary Audio Track
-----                                                           ------  ------- --------------  --------------  ------- ------- ------------------                        ---------------------
00004.MPLS                                                      MPEG-2  1:08:59 3 370 850 304   36 531 677 453  6,51    5,77    DD AC3 2.0 192Kbps
Код:
DISC INFO:
Disc Title:
Disc Size:      36 531 677 453 bytes
Protection:     AACS
BD-Java:        Yes
BDInfo:         0.5.3
PLAYLIST REPORT:
Name:                   00004.MPLS
Length:                 1:08:59 (h:m:s)
Size:                   3 370 850 304 bytes
Total Bitrate:          6,51 Mbps
VIDEO:
Codec                   Bitrate             Description
-----                   -------             -----------
MPEG-2 Video            5770 kbps           480i / 29,970 fps / 4:3
AUDIO:
Codec                           Language        Bitrate         Description
-----                           --------        -------         -----------
Dolby Digital Audio             English         192 kbps        2.0 / 48 kHz / 192 kbps
SUBTITLES:
Codec                           Language        Bitrate         Description
-----                           --------        -------         -----------
Presentation Graphics           English         22,495 kbps
Presentation Graphics           Chinese         21,589 kbps
Presentation Graphics           French          20,620 kbps
Presentation Graphics           German          21,894 kbps
Presentation Graphics           Italian         22,129 kbps
Presentation Graphics           Japanese        16,840 kbps
Presentation Graphics           Spanish         21,292 kbps
FILES:
Name            Time In         Length          Size            Total Bitrate
----            -------         ------          ----            -------------
00000.M2TS      0:00:00.000     0:29:13.551     1 437 462 528   6 558
00002.M2TS      0:29:13.551     0:21:14.506     1 034 471 424   6 493
00014.M2TS      0:50:28.058     0:18:31.210     898 916 352     6 472
CHAPTERS:
Number          Time In         Length          Avg Video Rate  Max 1-Sec Rate  Max 1-Sec Time  Max 5-Sec Rate  Max 5-Sec Time  Max 10Sec Rate  Max 10Sec Time  Avg Frame Size  Max Frame Size  Max Frame Time
------          -------         ------          --------------  --------------  --------------  --------------  --------------  --------------  --------------  --------------  --------------  --------------
1               0:00:00.000     0:29:13.551     5 804 kbps      12 349 kbps     00:28:23.401    10 140 kbps     00:27:08.627    9 888 kbps      00:27:08.627    24 209 bytes    156 509 bytes   00:25:54.686
2               0:29:13.551     0:21:14.506     5 747 kbps      11 170 kbps     00:31:18.977    10 235 kbps     00:31:17.942    9 302 kbps      00:31:12.937    23 969 bytes    166 032 bytes   00:32:40.191
3               0:50:28.058     0:18:31.210     5 742 kbps      11 122 kbps     01:04:27.496    9 612 kbps      01:06:09.131    9 321 kbps      01:05:12.875    23 949 bytes    173 120 bytes   01:05:04.967
STREAM DIAGNOSTICS:
File            PID             Type            Codec           Language                Seconds                 Bitrate                 Bytes           Packets
----            ---             ----            -----           --------                --------------          --------------          -------------   -----
00000.M2TS      4113 (0x1011)   0x02            MPEG-2                                  1753,452                5 805                   1 272 264 838   6 945 046
00000.M2TS      4352 (0x1100)   0x81            AC3             eng (English)           1753,452                192                     42 085 632      273 995
00000.M2TS      4608 (0x1200)   0x90            PGS             eng (English)           1753,452                23                      5 090 821       31 556
00000.M2TS      4609 (0x1201)   0x90            PGS             zho (Chinese)           1753,452                23                      4 971 150       30 949
00000.M2TS      4610 (0x1202)   0x90            PGS             fra (French)            1753,452                22                      4 790 723       29 880
00000.M2TS      4611 (0x1203)   0x90            PGS             deu (German)            1753,452                22                      4 818 978       30 106
00000.M2TS      4612 (0x1204)   0x90            PGS             ita (Italian)           1753,452                23                      5 048 568       31 360
00000.M2TS      4613 (0x1205)   0x90            PGS             jpn (Japanese)          1753,452                18                      3 877 034       24 016
00000.M2TS      4614 (0x1206)   0x90            PGS             spa (Spanish)           1753,452                23                      5 006 485       31 111
00002.M2TS      4113 (0x1011)   0x02            MPEG-2                                  1274,373                5 748                   915 563 184     4 998 150
00002.M2TS      4352 (0x1100)   0x81            AC3             eng (English)           1274,373                192                     30 588 672      199 145
00002.M2TS      4608 (0x1200)   0x90            PGS             eng (English)           1274,373                23                      3 647 277       22 688
00002.M2TS      4609 (0x1201)   0x90            PGS             zho (Chinese)           1274,373                22                      3 489 418       21 816
00002.M2TS      4610 (0x1202)   0x90            PGS             fra (French)            1274,373                21                      3 291 550       20 740
00002.M2TS      4611 (0x1203)   0x90            PGS             deu (German)            1274,373                22                      3 582 976       22 329
00002.M2TS      4612 (0x1204)   0x90            PGS             ita (Italian)           1274,373                22                      3 537 801       22 095
00002.M2TS      4613 (0x1205)   0x90            PGS             jpn (Japanese)          1274,373                17                      2 731 798       16 897
00002.M2TS      4614 (0x1206)   0x90            PGS             spa (Spanish)           1274,373                21                      3 396 873       21 305
00014.M2TS      4113 (0x1011)   0x02            MPEG-2                                  1111,110                5 743                   797 598 156     4 354 145
00014.M2TS      4352 (0x1100)   0x81            AC3             eng (English)           1111,110                192                     26 669 568      173 630
00014.M2TS      4608 (0x1200)   0x90            PGS             eng (English)           1111,110                21                      2 901 174       18 036
00014.M2TS      4609 (0x1201)   0x90            PGS             zho (Chinese)           1111,110                20                      2 709 557       17 013
00014.M2TS      4610 (0x1202)   0x90            PGS             fra (French)            1111,110                19                      2 586 617       16 297
00014.M2TS      4611 (0x1203)   0x90            PGS             deu (German)            1111,110                21                      2 926 086       18 176
00014.M2TS      4612 (0x1204)   0x90            PGS             ita (Italian)           1111,110                21                      2 863 148       17 830
00014.M2TS      4613 (0x1205)   0x90            PGS             jpn (Japanese)          1111,110                15                      2 104 432       13 000
00014.M2TS      4614 (0x1206)   0x90            PGS             spa (Spanish)           1111,110                19                      2 613 147       16 478
QUICK SUMMARY:
Disc Title:
Disc Size: 36 531 677 453 bytes
Protection: AACS
BD-Java: Yes
Playlist: 00004.MPLS
Size: 3 370 850 304 bytes
Length: 1:08:59
Total Bitrate: 6,51 Mbps
Video: MPEG-2 Video / 5770 kbps / 480i / 29,970 fps / 4:3
Audio: English / Dolby Digital Audio / 2.0 / 48 kHz / 192 kbps
Subtitle: English / 22,495 kbps
Subtitle: Chinese / 21,589 kbps
Subtitle: French / 20,620 kbps
Subtitle: German / 21,894 kbps
Subtitle: Italian / 22,129 kbps
Subtitle: Japanese / 16,840 kbps
Subtitle: Spanish / 21,292 kbps
-
Other forum [Profile] [PM]
Display posts from previous:    
Reply to topic

The time now is: Today 13:10

All times are GMT + 3 Hours



You cannot post new topics in this forum
You cannot reply to topics in this forum
You cannot edit your posts in this forum
You cannot delete your posts in this forum
You cannot vote in polls in this forum
You cannot attach files in this forum
You cannot download files in this forum