Today is a free download without charge Download

Неуловимые / Красный рассвет / Red Dawn (Дэн Брэдли / Dan Bradley) [2012, США, боевик, BDRemux 1080p] [US Transfer] Dub + MVO (Baibako) + Original Eng + Sub (Rus, Eng)

Reply to topic
 
Author
Message

Omen ®

Longevity: 8 years 5 months

Posts: 181087

Торрент-статистика

Post 23-Apr-2013 20:28

[Quote]

Неуловимые / Красный рассвет / Red Dawn «Welcome to the home of the brave» Год выпуска: 2012
Страна: США
Жанр: боевик
Продолжительность: 01:33:21.470
Перевод 1: Профессиональный (дублированный)
Перевод 2: Профессиональный (многоголосый закадровый) Baibako
Оригинальная аудиодорожка: Английская
Субтитры: Русские (Rus Blu-ray), английские (Full, SDH, SDH Colored)
Студия: FilmDistrict, Contrafilm, Metro-Goldwyn-Mayer (MGM)
Режиссёр: Дэн Брэдли / Dan Bradley
В ролях: Крис Хемсворт, Джош Пек, Джош Хатчерсон, Эдрианн Палики, Изабель Лукас, Джеффри Дин Морган, Коннор Круз, Эдвин Ходж, Бретт Каллен,Алисса Диаз и др.
Описание: Недалекое будущее. Новый тип оружия сделал даже крупнейшие сверхдержавы беспомощными перед массированным вторжением войск противника. Теперь война пришла в каждый дом. Восемь обычных американских парней и девушек решают не сдаваться без боя. Они организовывают отряд сопротивления «Росомахи». Их миссия - создавать хаос. От их смекалки и силы духа будет зависеть, есть ли у мира шанс пережить красный рассвет Третьей Мировой Войны.
  • Кинопоиск
  • IMDB
  • Blu-ray.com
  • Сэмпл
    Качество: BDRemux 1080p [US Transfer] Red Dawn 2012 1080p BluRay AVC DTS-HD MA 5 1-PublicHD
    Контейнер: MKV
    Видео кодек: MPEG-4 AVC Video
    Аудио кодек: DTS-HD Master Audio / Dolby Digital Audio
    Видео: MPEG-4 AVC Video / 37613 kbps / 1920x1080p / 23,976 fps / 16:9 / High Profile 4.1
    Аудио 1: Русский / DTS-HD Master Audio / 5.1 / 48 kHz / 4023 kbps / 24-bit (DTS Core: 5.1 / 48 kHz / 1509 kbps / 24-bit) / Дубляж Rus Blu-ray
    Аудио 2: Русский / Dolby Digital Audio / 5.1 / 48 kHz / 384 kbps / 16-bit / MVO Baibako
    Аудио 3: English / DTS-HD Master Audio / 5.1 / 48 kHz / 4011 kbps / 24-bit (DTS Core: 5.1 / 48 kHz / 1509 kbps / 24-bit) / Оригинал
    Навигация по главам: да

Скриншот с названием фильма

Скриншоты

MediaInfo

C:\/*spam*/\Неуловимые (Красный рассвет) (Red Dawn) 2012, США, боевик, US Transfer BDremux 1080p GORESEWAGE.mkv
General
Unique ID : 213595253379791719744554777503495462351 (0xA0B0F30EE9DB44FEACBF1D8526399DCF)
Complete name : C:\/*spam*/\Неуловимые (Красный рассвет) (Red Dawn) 2012, США, боевик, US Transfer BDremux 1080p GORESEWAGE.mkv
Format : Matroska
Format version : Version 4 / Version 2
File size : 29.4 GiB
Duration : 1h 33mn
Overall bit rate mode : Variable
Overall bit rate : 45.1 Mbps
Movie name : GORESEWAGE
Encoded date : UTC 2013-04-23 12:43:55
Writing application : mkvmerge v6.1.0 ('Old Devil') built on Mar 31 2013 15:21:18
Writing library : libebml v1.3.0 + libmatroska v1.4.0
Video #1
ID : 1
Format : AVC
Format/Info : Advanced Video Codec
Format profile : [email protected]
Format settings, CABAC : Yes
Format settings, ReFrames : 4 frames
Codec ID : V_MPEG4/ISO/AVC
Duration : 1h 33mn
Bit rate mode : Variable
Bit rate : 40.7 Mbps
Maximum bit rate : 40.0 Mbps
Width : 1 920 pixels
Height : 1 080 pixels
Display aspect ratio : 16:9
Frame rate mode : Constant
Frame rate : 23.976 fps
Color space : YUV
Chroma subsampling : 4:2:0
Bit depth : 8 bits
Scan type : Progressive
Bits/(Pixel*Frame) : 0.819
Stream size : 26.6 GiB (90%)
Title : GORESEWAGE
Language : English
Default : Yes
Forced : No
Audio #2
ID : 2
Format : DTS
Format/Info : Digital Theater Systems
Format profile : MA / Core
Codec ID : A_DTS
Duration : 1h 33mn
Bit rate mode : Variable
Bit rate : 1 561 Kbps / 1 510 Kbps
Channel(s) : 6 channels
Channel positions : Front: L C R, Side: L R, LFE
Sampling rate : 48.0 KHz
Bit depth : 24 bits
Compression mode : Lossless / Lossy
Title : Профессиональный дублированный Rus Blu-ray
Language : Russian
Default : Yes
Forced : No
Audio #3
ID : 3
Format : AC-3
Format/Info : Audio Coding 3
Mode extension : CM (complete main)
Format settings, Endianness : Big
Codec ID : A_AC3
Duration : 1h 33mn
Bit rate mode : Constant
Bit rate : 384 Kbps
Channel(s) : 6 channels
Channel positions : Front: L C R, Side: L R, LFE
Sampling rate : 48.0 KHz
Bit depth : 16 bits
Compression mode : Lossy
Stream size : 256 MiB (1%)
Title : Профессиональный (многоголосый закадровый) Baibako
Language : Russian
Default : No
Forced : No
Audio #4
ID : 4
Format : DTS
Format/Info : Digital Theater Systems
Format profile : MA / Core
Codec ID : A_DTS
Duration : 1h 33mn
Bit rate mode : Variable
Bit rate : 1 561 Kbps / 1 510 Kbps
Channel(s) : 6 channels
Channel positions : Front: L C R, Side: L R, LFE
Sampling rate : 48.0 KHz
Bit depth : 24 bits
Compression mode : Lossless / Lossy
Title : Оригинал
Language : English
Default : No
Forced : No
Text #5
ID : 5
Format : UTF-8
Codec ID : S_TEXT/UTF8
Codec ID/Info : UTF-8 Plain Text
Title : Rus Blu-ray
Language : Russian
Default : No
Forced : No
Text #6
ID : 6
Format : UTF-8
Codec ID : S_TEXT/UTF8
Codec ID/Info : UTF-8 Plain Text
Title : Full
Language : English
Default : No
Forced : No
Text #7
ID : 7
Format : UTF-8
Codec ID : S_TEXT/UTF8
Codec ID/Info : UTF-8 Plain Text
Title : SDH
Language : English
Default : No
Forced : No
Text #8
ID : 8
Format : UTF-8
Codec ID : S_TEXT/UTF8
Codec ID/Info : UTF-8 Plain Text
Title : SDH Colored
Language : English
Default : No
Forced : No
Menu
00:00:00.000 : en:00:00:00.000
00:10:24.841 : en:00:10:24.841
00:21:58.869 : en:00:21:58.869
00:31:49.709 : en:00:31:49.709
00:43:40.754 : en:00:43:40.754
00:54:56.179 : en:00:54:56.179
01:07:17.087 : en:01:07:17.087
01:25:58.708 : en:01:25:58.708

Полноразмерный постер

Other forum [Profile] [PM]
Display posts from previous:    
Reply to topic

The time now is: Today 10:55

All times are GMT + 3 Hours



You cannot post new topics in this forum
You cannot reply to topics in this forum
You cannot edit your posts in this forum
You cannot delete your posts in this forum
You cannot vote in polls in this forum
You cannot attach files in this forum
You cannot download files in this forum