Today is a free download without charge Download

Часы отчаяния / The Desperate Hours (Уильям Уайлер / William Wyler) [1955, США, фильм-нуар, триллер, драма, криминал, HDTVRip 720p] DVO (Prestige) + Original (Eng) + Sub (Rus, Eng)

Reply to topic
 
Author
Message

Omen ®

Longevity: 8 years 5 months

Posts: 181087

Торрент-статистика

Post 23-Apr-2013 16:18

[Quote]

Часы отчаяния / The Desperate Hours
Страна: США
Студия: Paramount Pictures
Жанр: фильм-нуар, триллер, драма, криминал
Год выпуска: 1955
Продолжительность: 01:47:55
Перевод: профессиональный (двухголосый закадровый) - "Film-Prestige"
Cубтитры: русские, английские
Оригинальная аудиодорожка: английский
Премьера (мир): 5 октября 1955
Режиссер: Уильям Уайлер / William Wyler
Композиторы: Гэйл Кубик / Gail Kubik / Даниил Амфитеатроф / Daniele Amfitheatrof
Художник по костюмам: Эдит Хэд / Edith Head
В ролях:
Хэмфри Богарт / Humphrey Bogart... Glenn Griffin
Фредрик Марч / Fredric March... Dan C. Hilliard
Артур Кеннеди / Arthur Kennedy... Deputy Sheriff Jesse Bard
Марта Скотт / Martha Scott... Ellie Hilliard
Дьюи Мартин / Dewey Martin... Hal Griffin
Гиг Янг / Gig Young... Chuck Wright
Мэри Мерфи / Mary Murphy... Cindy Hilliard
Ричард Айер / Richard Eyer... Ralphie Hilliard
Роберт Миддлтон / Robert Middleton... Sam Kobish
Алан Рид / Alan Reed... Detective

Описание:
Трое гангстеров - здоровяк Кобиш и братья Гриффины - совершают побег из федеральной тюрьмы. 4 года назад, во время ареста, помощник шерифа Бард сломал Гленну Гриффину челюсть и тот поклялся отомстить. Время мести настало. Бандитам нужно временное укрытие и они врываются в дом, где проживает большая семья Хилльярдов. Пребывание непрошенных гостей в доме превращается в кошмар для его мирных обитателей. Теперь Гленн должен решить судьбу заложников, жестоко наказать Барда и попытаться затем скрыться… Для Дэна Хилльярда наступают часы испытаний, отчаяния и проверки на мужество.
По роману Джозефа Хэйса (Joseph Hayes) и сюжету Джея Дрэтлера (Jay Dratler).
Доп. информация: К скачанному в сети HDTVRip добавлены: первой русская дорожка с диска "Film-Prestige" и русские субтиртры.

Тип релиза: HDTVRip 720p
Контейнер: MKV
Видео: MPEG-4 AVC Video / 6500 Кбит/сек / 1280 x 720 p / 25,000 fps / 16:9 / [email protected]
Аудио 1: Russian (AC3, 2 ch), 48,0 КГц, 16 бит, 192 Кбит/сек, Front: L R
Аудио 2: English (AC3, 2 ch), 48,0 КГц, 16 бит, 384 Кбит/сек, Front: L R
Аудио 3: German (AC3, 2 ch), 48,0 КГц, 16 бит, 192 Кбит/сек, Front: L R
Субтитры: Russian, English, German, English-SDH (UTF-8)/color]

О диске

Исходник - An.einem.Tag.wie.jeder.andere.1955.German.DL.720p.HDTV.x264-msd.mkv
Разбивка по главам имеется.

Media Info

Общее
Уникальный идентификатор : 195582254819394180724340565307227830878 (0x9323C5A94FD8D3D7AC91AA792172FA5E)
Полное имя : J:\МОИ РАЗДАЧИ 2 (Humphrey Bogart)\Часы отчаяния 1955 (HDTVRip)\The Desperate Hours 1955 (HDTVRip) - 720p\The Desperate Hours 1955 (HDTVRip) - 720p\Desperate.Hours.1955.Rus.Eng.Ger.DL.Sub.Rus.Eng.Ger.720p.HDTV.x264-msd.mkv
Формат : Matroska
Версия формата : Version 4 / Version 2
Размер файла : 5,48 Гбайт
Продолжительность : 1 ч. 47 м.
Общий поток : 7269 Кбит/сек
Дата кодирования : UTC 2013-04-23 07:49:20
Программа кодирования : mkvmerge v6.0.0 ('Coming Up For Air') built on Jan 20 2013 09:52:00
Библиотека кодирования : libebml v1.3.0 + libmatroska v1.4.0
Видео
Идентификатор : 1
Формат : AVC
Формат/Информация : Advanced Video Codec
Профиль формата : [email protected]
Параметр CABAC формата : Да
Параметр ReFrames формата : 9 кадров
Идентификатор кодека : V_MPEG4/ISO/AVC
Продолжительность : 1 ч. 47 м.
Битрейт : 6500 Кбит/сек
Ширина : 1280 пикселей
Высота : 720 пикселей
Соотношение сторон : 16:9
Режим частоты кадров : Постоянный
Частота кадров : 25,000 кадров/сек
Цветовое пространство : YUV
Субдискретизация насыщенности : 4:2:0
Битовая глубина : 8 бит
Тип развёртки : Прогрессивная
Бит/(Пиксели*Кадры) : 0.282
Размер потока : 4,79 Гбайт (87%)
Заголовок : Video
Библиотека кодирования : x264 core 129 r2245 bc13772
Настройки программы : cabac=1 / ref=9 / deblock=1:-3:-3 / analyse=0x3:0x113 / me=umh / subme=10 / psy=1 / psy_rd=0.80:0.00 / mixed_ref=1 / me_range=24 / chroma_me=1 / trellis=2 / 8x8dct=1 / cqm=0 / deadzone=21,11 / fast_pskip=1 / chroma_qp_offset=-2 / threads=12 / lookahead_threads=2 / sliced_threads=0 / nr=0 / decimate=1 / interlaced=0 / bluray_compat=0 / constrained_intra=0 / bframes=8 / b_pyramid=2 / b_adapt=2 / b_bias=0 / direct=3 / weightb=1 / open_gop=0 / weightp=2 / keyint=250 / keyint_min=25 / scenecut=40 / intra_refresh=0 / rc=2pass / mbtree=0 / bitrate=6500 / ratetol=1.0 / qcomp=0.70 / qpmin=0 / qpmax=69 / qpstep=4 / cplxblur=20.0 / qblur=0.5 / ip_ratio=1.40 / pb_ratio=1.30 / aq=1:0.70
Default : Да
Forced : Нет
Аудио #1
Идентификатор : 2
Формат : AC-3
Формат/Информация : Audio Coding 3
Расширение режима : CM (complete main)
Параметр Endianness формата : Big
Идентификатор кодека : A_AC3
Продолжительность : 1 ч. 47 м.
Вид битрейта : Постоянный
Битрейт : 192 Кбит/сек
Каналы : 2 канала
Расположение каналов : Front: L R
Частота : 48,0 КГц
Битовая глубина : 16 бит
Метод сжатия : С потерями
Размер потока : 148 Мбайт (3%)
Заголовок : Film-Prestige
Язык : Russian
Default : Да
Forced : Нет
Аудио #2
Идентификатор : 3
Формат : AC-3
Формат/Информация : Audio Coding 3
Профиль формата : Dolby Digital
Расширение режима : CM (complete main)
Параметр Endianness формата : Big
Идентификатор кодека : A_AC3
Продолжительность : 1 ч. 47 м.
Вид битрейта : Постоянный
Битрейт : 384 Кбит/сек
Каналы : 2 канала
Расположение каналов : Front: L R
Частота : 48,0 КГц
Битовая глубина : 16 бит
Метод сжатия : С потерями
Размер потока : 296 Мбайт (5%)
Заголовок : Original
Язык : English
Default : Нет
Forced : Нет
Аудио #3
Идентификатор : 4
Формат : AC-3
Формат/Информация : Audio Coding 3
Расширение режима : CM (complete main)
Параметр Endianness формата : Big
Идентификатор кодека : A_AC3
Продолжительность : 1 ч. 47 м.
Вид битрейта : Постоянный
Битрейт : 192 Кбит/сек
Каналы : 2 канала
Расположение каналов : Front: L R
Частота : 48,0 КГц
Битовая глубина : 16 бит
Метод сжатия : С потерями
Размер потока : 148 Мбайт (3%)
Заголовок : German
Язык : German
Default : Нет
Forced : Нет
Текст #1
Идентификатор : 5
Формат : UTF-8
Идентификатор кодека : S_TEXT/UTF8
Идентификатор кодека/Информация : UTF-8 Plain Text
Заголовок : Film-Prestige
Язык : Russian
Default : Нет
Forced : Нет
Текст #2
Идентификатор : 6
Формат : UTF-8
Идентификатор кодека : S_TEXT/UTF8
Идентификатор кодека/Информация : UTF-8 Plain Text
Заголовок : Original
Язык : English
Default : Нет
Forced : Нет
Текст #3
Идентификатор : 7
Формат : UTF-8
Идентификатор кодека : S_TEXT/UTF8
Идентификатор кодека/Информация : UTF-8 Plain Text
Заголовок : German
Язык : German
Default : Нет
Forced : Нет
Текст #4
Идентификатор : 8
Формат : UTF-8
Идентификатор кодека : S_TEXT/UTF8
Идентификатор кодека/Информация : UTF-8 Plain Text
Заголовок : Original-SDH
Язык : English
Default : Нет
Forced : Нет
Меню
00:00:00.000 : en:00:00:00.000
00:03:48.840 : en:00:03:48.840
00:06:05.680 : en:00:06:05.680
00:10:11.960 : en:00:10:11.960
00:15:29.880 : en:00:15:29.880
00:22:25.800 : en:00:22:25.800
00:25:45.240 : en:00:25:45.240
00:31:25.480 : en:00:31:25.480
00:35:21.160 : en:00:35:21.160
00:42:18.160 : en:00:42:18.160
00:47:16.120 : en:00:47:16.120
00:52:13.480 : en:00:52:13.480
00:57:03.880 : en:00:57:03.880
00:59:19.760 : en:00:59:19.760
01:04:36.680 : en:01:04:36.680
01:09:42.360 : en:01:09:42.360
01:11:40.880 : en:01:11:40.880
01:16:47.600 : en:01:16:47.600
01:19:31.360 : en:01:19:31.360
01:22:02.560 : en:01:22:02.560
01:24:20.680 : en:01:24:20.680
01:29:54.280 : en:01:29:54.280
01:36:04.360 : en:01:36:04.360
01:40:38.760 : en:01:40:38.760
01:43:45.760 : en:01:43:45.760

Скриншоты

Other forum [Profile] [PM]
Display posts from previous:    
Reply to topic

The time now is: Today 12:36

All times are GMT + 3 Hours



You cannot post new topics in this forum
You cannot reply to topics in this forum
You cannot edit your posts in this forum
You cannot delete your posts in this forum
You cannot vote in polls in this forum
You cannot attach files in this forum
You cannot download files in this forum