Today is a free download without charge Download

Исходный код / Source Code (2011) [720p] BDRip

Reply to topic
 
Author
Message

Varius ®

Gender:

Longevity: 9 years 7 months

Posts: 2416

Location: Hell

Торрент-статистика

Post 20-Jul-2011 22:43

[Quote]

Исходный код | Source Code-«Make every second count»-
Русское название: Исходный код
Оригинальное название: Source Code
Год выпуска: 2011
Жанр: фантастика, боевик, триллер
Описание фильма:
Герой фильма — солдат, который оказывается в теле некоего человека, и вынужден постоянно переживать чудовищный взрыв поезда, пока не поймёт, кто его устроил.
Режиссер: Дункан Джонс
Актеры: Джейк Джилленхол, Мишель Монахэн, Вера Фармига, Джеффри Райт, Майкл Арден, Кэс Анвар, Расселл Питерс, Бренд Скафорд, Крэйг Томас, Гордон Мастен
Продолжительность: 01:33:12
Перевод: Одноголосый закадровый
Доп.информация: Рип от CtrlHD

Рейтинг PG-13 - Детям до 13 лет просмотр не желателен
Видеокодек: MPEG-4 AVC/H.264
Битрейт видео: 6499 kbps
Размер кадра: 1280x720
Качество видео: BDRip 720p
Аудио #1: Русский, AC3 5.1, 384 kbps |Одноголосый закадровый, zamez|
Аудио #2: Английский, DTS 5.1, 1510 kbps |Оригинал|
Субтитры: Русские, Английские

Знаете ли вы, что...

* Песня, которая стоит на звонке у Кристины - Chesney Hawkes - «The One and Only», она же играет на будильнике у Сэма в «Луне 2112». Режиссёр обоих фильмов - Дункан Джонс.
* На главную роль рассматривался Тофер Грэйс.
* Примечательно, что отца капитана Колтера Стивенса озвучивает Скотт Бакула – актер, известный главной ролью в сериале «Квантовый скачок», что был снят на ту же тему, и основные стилистические элементы которого, в точности повторяют, основные стилистические элементы «Исходного кода».

Media Info

Общее
Уникальный идентификатор : 198846266406865205768102484541316359634 (0x959865DB7B094A4F917541E69B4165D2)
Полное имя : D:\Films\Исходный код [Source Code] 720p.mkv
Формат : Matroska
Версия формата : Version 2
Размер файла : 5,46 Гбайт
Продолжительность : 1 ч. 33 м.
Общий поток : 8392 Кбит/сек
Название фильма : Исходный код | Source Code
Дата кодирования : UTC 2011-07-16 11:40:47
Программа кодирования : mkvmerge v4.8.0 ('I Got The...') сборка от May 24 2011 03:12:58
Библиотека кодирования : libebml v1.2.0 + libmatroska v1.1.0
Attachment : Yes / Yes / Yes / Yes
Видео
Идентификатор : 1
Формат : AVC
Формат/Информация : Advanced Video Codec
Профиль формата : [email protected]
Параметр CABAC формата : Да
Параметр ReFrames формата : 9 кадров
Идентификатор кодека : V_MPEG4/ISO/AVC
Продолжительность : 1 ч. 33 м.
Битрейт : 6499 Кбит/сек
Ширина : 1280 пикс.
Высота : 720 пикс.
Соотношение сторон : 16:9
Частота кадров : 23,976 кадр/сек
Цветовое пространство : YUV
Подвыборка цветности : 4:2:0
Битовая глубина : 8 бит
Тип развёртки : Прогрессивная
Бит/(Пиксели*Кадры) : 0.294
Размер потока : 4,12 Гбайт (75%)
Заголовок : Исходный код | Source Code
Библиотека кодирования : x264 core 116 r2019 9cc407d
Настройки программы : cabac=1 / ref=9 / deblock=1:-2:-2 / analyse=0x3:0x133 / me=umh / subme=10 / psy=1 / psy_rd=1.00:0.00 / mixed_ref=1 / me_range=32 / chroma_me=1 / trellis=2 / 8x8dct=1 / cqm=0 / deadzone=21,11 / fast_pskip=1 / chroma_qp_offset=-2 / threads=12 / sliced_threads=0 / nr=0 / decimate=1 / interlaced=0 / bluray_compat=0 / constrained_intra=0 / bframes=3 / b_pyramid=2 / b_adapt=2 / b_bias=0 / direct=3 / weightb=1 / open_gop=1 / weightp=2 / keyint=250 / keyint_min=23 / scenecut=40 / intra_refresh=0 / rc_lookahead=80 / rc=2pass / mbtree=1 / bitrate=6499 / ratetol=1.0 / qcomp=0.60 / qpmin=0 / qpmax=69 / qpstep=4 / cplxblur=20.0 / qblur=0.5 / ip_ratio=1.40 / aq=1:1.00
Язык : English
Аудио #1
Идентификатор : 2
Формат : DTS
Формат/Информация : Digital Theater Systems
Идентификатор кодека : A_DTS
Продолжительность : 1 ч. 33 м.
Вид битрейта : Постоянный
Битрейт : 1510 Кбит/сек
Каналы : 6 каналов
Расположение каналов : Front: L C R, Side: L R, LFE
Частота : 48,0 КГц
Битовая глубина : 24 бит
Метод сжатия : С потерями
Задержка видео : 22 мс.
Размер потока : 1007 Мбайт (18%)
Язык : English
Аудио #2
Идентификатор : 3
Формат : AC-3
Формат/Информация : Audio Coding 3
Расширение режима : CM (complete main)
Идентификатор кодека : A_AC3
Продолжительность : 1 ч. 33 м.
Вид битрейта : Постоянный
Битрейт : 384 Кбит/сек
Каналы : 6 каналов
Расположение каналов : Front: L C R, Side: L R, LFE
Частота : 48,0 КГц
Битовая глубина : 16 бит
Метод сжатия : С потерями
Размер потока : 256 Мбайт (5%)
Заголовок : Вячеслав Замез (zamez)
Язык : Russian
Текст #1
Идентификатор : 4
Формат : UTF-8
Идентификатор кодека : S_TEXT/UTF8
Идентификатор кодека/Информация : UTF-8 Plain Text
Язык : English
Текст #2
Идентификатор : 5
Формат : UTF-8
Идентификатор кодека : S_TEXT/UTF8
Идентификатор кодека/Информация : UTF-8 Plain Text
Язык : Russian
Меню
00:00:00.000 : en:00:00:00.000
00:06:52.871 : en:00:06:52.871
00:11:03.663 : en:00:11:03.663
00:17:20.039 : en:00:17:20.039
00:21:06.557 : en:00:21:06.557
00:28:36.798 : en:00:28:36.798
00:31:50.367 : en:00:31:50.367
00:36:19.886 : en:00:36:19.886
00:41:35.743 : en:00:41:35.743
00:47:21.839 : en:00:47:21.839
00:52:30.189 : en:00:52:30.189
00:54:32.102 : en:00:54:32.102
00:58:01.228 : en:00:58:01.228
01:03:02.320 : en:01:03:02.320
01:09:39.550 : en:01:09:39.550
01:15:12.049 : en:01:15:12.049
01:21:49.655 : en:01:21:49.655
01:24:41.118 : en:01:24:41.118
Скриншоты              

_________________

Создавая "Новую папку", не считайте себя Создателем - это право Вам дано Админом




Last edited by Varius on 2011-07-21 00:20; edited 2 times in total
Other forum [Profile] [PM]
Similar theme
Forum Topic Author Torrent Replies Last Post
./templates/default/images/folder_dl.gif FPS (1st Person) Metro: Exodus / Метро: Исход (2019) [Ru/Multi] (1.0.0.0) Repack R.G. Механики Clavik
1 | 0

4 | 443

0

2019-08-17 12:33
Clavik Latest
Display posts from previous:    
Reply to topic

The time now is: Today 20:53

All times are GMT + 3 Hours



You cannot post new topics in this forum
You cannot reply to topics in this forum
You cannot edit your posts in this forum
You cannot delete your posts in this forum
You cannot vote in polls in this forum
You cannot attach files in this forum
You cannot download files in this forum