Today is a free download without charge Download

Тёрнер и Хуч / Turner & Hooch (Роджер Споттисвуд / Roger Spottiswoode) [1989, США, Комедия, детектив, BDRip 1080p] MVO (НТВ+) + MVO (СТС) + MVO (ОРТ) + AVO (Михалев) + DUB (СВ-Дубль) + Sub Rus, Eng + Original Eng

Reply to topic
 
Author
Message

Omen ®

Longevity: 8 years 5 months

Posts: 181087

Торрент-статистика

Post 23-Apr-2013 08:10

[Quote]

Тёрнер и Хуч / Turner & Hooch
Страна: США
Студия: Silver Screen Partners IV, Touchstone Pictures
Жанр: Комедия, детектив
Год выпуска: 1989
Продолжительность: 01:39:41
Перевод 1: Профессиональный многоголосый (НТВ+)
Перевод 2: Профессиональный многоголосый (СТС)
Перевод 3: Профессиональный многоголосый (ОРТ)
Перевод 4: Авторский одноголосый (Михалев )
Перевод 5: Дублированный (СВ-Дубль)
Cубтитры: Русские, английские
Оригинальная аудиодорожка: английский
Режиссер: Роджер Споттисвуд
В ролях: Том Хэнкс, Мэр Уиннингхэм, Крэйг Т. Нельсон, Реджинальд ВелДжонсон, Скотт Полин, Дж. К. Куин, Джон МакИнтайр, Дэвид Нелл, Эбби Роу Смит, Кевин Сканнелл
Описание: Профессиональный сыщик Скотт Тернер ненавидит беспорядок. В его жизни все заранее спланировано и предсказуемо. Хуч — самый неспокойный, самый невоспитанный и абсолютно неподдающийся дрессировке пес. Не повезет тому несчастному хозяину, к которому он попадет. Тернер слишком поздно понял, кого впустил в свой дом. Но шумные ссоры ни к чему не привели. Возможно, лучший способ одолеть своего врага, это подружиться с ним.
Сэмпл: http://sendfile.su/799588
Тип релиза: BDRip 1080p
Контейнер: MKV
Релиз:
Сохранены оригинальные чаптеры как на Blu-ray
Видео: MPEG-4 AVC, 10.6 Mбит/с, 1920x1040
Аудио 1: Русский (AC3, 6 ch, 384 Кбит/с) Профессиональный многоголосый (НТВ+)
Аудио 2: Русский (AC3, 2 ch, 192 Кбит/с) Профессиональный многоголосый (СТС)
Аудио 3: Русский (AC3, 2 ch, 192 Кбит/с) Профессиональный многоголосый (ОРТ)
Аудио 4: Русский (DTS, 6 ch, 1509 Кбит/с) - Авторский одноголосый (Михалев )
Аудио 5: Русский (AC3, 1 ch, 256 Кбит/с) - Дублированный (СВ-Дубль)
Аудио 6: Английский (DTS, 6 ch, 1509 Кбит/с)
Формат субтитров: SRT

MediaInfo

Общее
Уникальный идентификатор : 174512452372833648555125359831122182640 (0x8349E0326B339AF8BBDCBEA496F001F0)
Полное имя : C:\Фильмы\Turner.&.Hooch.1989.BDRip.1080p.mkv
Формат : Matroska
Версия формата : Version 4 / Version 2
Размер файла : 10,2 Гбайт
Продолжительность : 1 ч. 39 м.
Общий поток : 14,6 Мбит/сек
Название фильма : CMEGRoup
Дата кодирования : UTC 2013-04-22 19:47:32
Программа кодирования : mkvmerge v5.9.0 ('On The Loose') built on Dec 15 2012 16:39:58
Библиотека кодирования : libebml v1.3.0 + libmatroska v1.4.0
Видео
Идентификатор : 1
Формат : AVC
Формат/Информация : Advanced Video Codec
Профиль формата : [email protected]
Параметр CABAC формата : Да
Параметр ReFrames формата : 4 кадра
Идентификатор кодека : V_MPEG4/ISO/AVC
Продолжительность : 1 ч. 39 м.
Битрейт : 10,6 Мбит/сек
Ширина : 1920 пикселей
Высота : 1040 пикселей
Соотношение сторон : 1,85:1
Режим частоты кадров : Постоянный
Частота кадров : 23,976 кадра/сек
Цветовое пространство : YUV
Субдискретизация насыщенности : 4:2:0
Битовая глубина : 8 бит
Тип развёртки : Прогрессивная
Бит/(Пиксели*Кадры) : 0.221
Размер потока : 7,17 Гбайт (70%)
Библиотека кодирования : x264 core 130 r2273 b3065e6
Настройки программы : cabac=1 / ref=4 / deblock=1:-3:-3 / analyse=0x3:0x113 / me=umh / subme=10 / psy=1 / psy_rd=1.00:0.00 / mixed_ref=1 / me_range=32 / chroma_me=1 / trellis=2 / 8x8dct=1 / cqm=0 / deadzone=21,11 / fast_pskip=1 / chroma_qp_offset=-2 / threads=6 / lookahead_threads=1 / sliced_threads=0 / nr=0 / decimate=1 / interlaced=0 / bluray_compat=0 / constrained_intra=0 / bframes=5 / b_pyramid=2 / b_adapt=2 / b_bias=0 / direct=2 / weightb=0 / open_gop=0 / weightp=2 / keyint=240 / keyint_min=23 / scenecut=40 / intra_refresh=0 / rc_lookahead=40 / rc=2pass / mbtree=1 / bitrate=10600 / ratetol=1.0 / qcomp=0.60 / qpmin=0 / qpmax=69 / qpstep=4 / cplxblur=20.0 / qblur=0.5 / vbv_maxrate=62500 / vbv_bufsize=78125 / nal_hrd=none / ip_ratio=1.40 / aq=1:1.00
Язык : English
Default : Да
Forced : Нет
Аудио #1
Идентификатор : 2
Формат : AC-3
Формат/Информация : Audio Coding 3
Расширение режима : CM (complete main)
Параметр Endianness формата : Big
Идентификатор кодека : A_AC3
Продолжительность : 1 ч. 39 м.
Вид битрейта : Постоянный
Битрейт : 384 Кбит/сек
Каналы : 6 каналов
Расположение каналов : Front: L C R, Side: L R, LFE
Частота : 48,0 КГц
Битовая глубина : 16 бит
Метод сжатия : С потерями
Размер потока : 274 Мбайт (3%)
Заголовок : MVO
Язык : Russian
Default : Да
Forced : Нет
Аудио #2
Идентификатор : 3
Формат : AC-3
Формат/Информация : Audio Coding 3
Расширение режима : CM (complete main)
Параметр Endianness формата : Big
Идентификатор кодека : A_AC3
Продолжительность : 1 ч. 39 м.
Вид битрейта : Постоянный
Битрейт : 192 Кбит/сек
Каналы : 2 канала
Расположение каналов : Front: L R
Частота : 48,0 КГц
Битовая глубина : 16 бит
Метод сжатия : С потерями
Размер потока : 137 Мбайт (1%)
Заголовок : MVO
Язык : Russian
Default : Нет
Forced : Нет
Аудио #3
Идентификатор : 4
Формат : AC-3
Формат/Информация : Audio Coding 3
Расширение режима : CM (complete main)
Параметр Endianness формата : Big
Идентификатор кодека : A_AC3
Продолжительность : 1 ч. 39 м.
Вид битрейта : Постоянный
Битрейт : 192 Кбит/сек
Каналы : 2 канала
Расположение каналов : Front: L R
Частота : 48,0 КГц
Битовая глубина : 16 бит
Метод сжатия : С потерями
Размер потока : 137 Мбайт (1%)
Заголовок : MVO
Язык : Russian
Default : Нет
Forced : Нет
Аудио #4
Идентификатор : 5
Формат : DTS
Формат/Информация : Digital Theater Systems
Режим : 16
Параметр Endianness формата : Big
Идентификатор кодека : A_DTS
Продолжительность : 1 ч. 39 м.
Вид битрейта : Постоянный
Битрейт : 1509 Кбит/сек
Каналы : 6 каналов
Расположение каналов : Front: L C R, Side: L R, LFE
Частота : 48,0 КГц
Битовая глубина : 16 бит
Метод сжатия : С потерями
Размер потока : 1,05 Гбайт (10%)
Заголовок : AVO
Язык : Russian
Default : Нет
Forced : Нет
Аудио #5
Идентификатор : 6
Формат : AC-3
Формат/Информация : Audio Coding 3
Расширение режима : CM (complete main)
Параметр Endianness формата : Big
Идентификатор кодека : A_AC3
Продолжительность : 1 ч. 39 м.
Вид битрейта : Постоянный
Битрейт : 256 Кбит/сек
Каналы : 1 канал
Расположение каналов : Front: C
Частота : 48,0 КГц
Битовая глубина : 16 бит
Метод сжатия : С потерями
Размер потока : 183 Мбайт (2%)
Заголовок : DUB
Язык : Russian
Default : Нет
Forced : Нет
Аудио #6
Идентификатор : 7
Формат : DTS
Формат/Информация : Digital Theater Systems
Режим : 16
Параметр Endianness формата : Big
Идентификатор кодека : A_DTS
Продолжительность : 1 ч. 39 м.
Вид битрейта : Постоянный
Битрейт : 1509 Кбит/сек
Каналы : 6 каналов
Расположение каналов : Front: L C R, Side: L R, LFE
Частота : 48,0 КГц
Битовая глубина : 24 бит
Метод сжатия : С потерями
Размер потока : 1,05 Гбайт (10%)
Заголовок : ENG
Язык : English
Default : Нет
Forced : Нет
Текст #1
Идентификатор : 8
Формат : UTF-8
Идентификатор кодека : S_TEXT/UTF8
Идентификатор кодека/Информация : UTF-8 Plain Text
Язык : Russian
Default : Нет
Forced : Нет
Текст #2
Идентификатор : 9
Формат : UTF-8
Идентификатор кодека : S_TEXT/UTF8
Идентификатор кодека/Информация : UTF-8 Plain Text
Язык : English
Default : Нет
Forced : Нет
Меню
00:00:00.000 : en:00:00:00.000
00:12:27.747 : en:00:12:27.747
00:17:37.515 : en:00:17:37.515
00:25:54.845 : en:00:25:54.845
00:29:11.124 : en:00:29:11.124
00:36:43.159 : en:00:36:43.159
00:44:38.092 : en:00:44:38.092
00:50:24.897 : en:00:50:24.897
00:59:10.297 : en:00:59:10.297
01:05:35.890 : en:01:05:35.890
01:19:01.528 : en:01:19:01.528
01:30:05.650 : en:01:30:05.650
Other forum [Profile] [PM]
Similar theme
Forum Topic Author Torrent Replies Last Post
./templates/default/images/folder_dl.gif Развлекательные телепередачи и шоу, приколы и юмор Отличный Новый год на Пятом. Российский музыкальный хит-парад интернета [эфир 01.01.2013] (2013) TVRip Omen
0 | 1

0 | 839

0

2013-01-28 04:32
Omen Latest
./templates/default/images/folder_dl.gif Техническая и научно-популярная литература Эндрю Блам | Сеть. Как устроен и как работает Интернет (2014) [PDF, DOCX, FB2, EPUB] Omen
0 | 1

0 | 501

10

2015-06-10 12:32
Omen Latest
Display posts from previous:    
Reply to topic

The time now is: Today 09:42

All times are GMT + 3 Hours



You cannot post new topics in this forum
You cannot reply to topics in this forum
You cannot edit your posts in this forum
You cannot delete your posts in this forum
You cannot vote in polls in this forum
You cannot attach files in this forum
You cannot download files in this forum