Today is a free download without charge Download

Нубы / Noobz (Блейк Фриман / Blake Freeman) [2012, США, комедия, BDRemux 1080p] MVO (НТВ+) + Original Eng

Reply to topic
 
Author
Message

Omen ®

Longevity: 8 years 5 months

Posts: 181087

Торрент-статистика

Post 23-Apr-2013 08:10

[Quote]

Нубы / Noobz «Игра окончена» / «Game Over» Год выпуска: 2012
Страна: США
Жанр: комедия
Продолжительность: 01:40:09.795
Перевод: Профессиональный (многоголосый закадровый) НТВ+
Оригинальная аудиодорожка: Английская
Субтитры: нет
Студия: Wunderkind Pictures
Режиссёр: Блейк Фриман / Blake Freeman
В ролях: Блейк Фриман, Мойзес Ариас, Джейсон Мьюз, Каспер Ван Дин, Джон Грайз, Карли Крэйг, Сабрина Карпентер, Минди Стерлинг, Лин Шэй, Катрин Аннетт и др.
Описание: Четверо друзей - фанаты компьютерных игр, отправляются на кибер-чемпионат, надеясь стать победителями.
  • Кинопоиск
  • IMDB
  • Blu-ray.com
  • Сэмпл
    Качество: BDRemux 1080p Noobz 2012 1080p Blu-Ray AVC DTS-HD MA 5.1-HDWinG
    Контейнер: MKV
    Видео кодек: MPEG-4 AVC Video
    Аудио кодек: DTS-HD Master Audio / DTS Audio / Dolby Digital Audio
    Видео: MPEG-4 AVC Video / 17000 kbps / 1920x1080p / 23,976 fps / 16:9 / High Profile 4.1
    Аудио 1: Русский / Dolby Digital Audio / 2.0 / 48 kHz / 192 kbps / 16-bit / НТВ+
    Аудио 2: English / DTS-HD Master Audio / 5.1 / 48 kHz / 3617 kbps / 24-bit (DTS Core: 5.1 / 48 kHz / 1509 kbps / 24-bit) / Оригинал
    Аудио 3: English / DTS Audio / 2.0 / 48 kHz / 320 kbps / 24-bit / Комментарии
    Навигация по главам: да

Скриншот с названием фильма

MediaInfo

C:\/*spam*/\Нубы (Noobz) 2012, США, комедия, BDRemux 1080p GORESEWAGE.mkv
General
Unique ID : 179584405723953492960143190548243653387 (0x871AB2CDCEBF4CB998EB283DE6C1A30B)
Complete name : C:\/*spam*/\Нубы (Noobz) 2012, США, комедия, BDRemux 1080p GORESEWAGE.mkv
Format : Matroska
Format version : Version 4 / Version 2
File size : 14.8 GiB
Duration : 1h 40mn
Overall bit rate mode : Variable
Overall bit rate : 21.0 Mbps
Movie name : GORESEWAGE
Encoded date : UTC 2013-04-22 21:17:48
Writing application : mkvmerge v6.1.0 ('Old Devil') built on Mar 31 2013 15:21:18
Writing library : libebml v1.3.0 + libmatroska v1.4.0
Video #1
ID : 1
Format : AVC
Format/Info : Advanced Video Codec
Format profile : [email protected]
Format settings, CABAC : Yes
Format settings, ReFrames : 4 frames
Codec ID : V_MPEG4/ISO/AVC
Duration : 1h 40mn
Bit rate mode : Variable
Bit rate : 18.6 Mbps
Maximum bit rate : 30.0 Mbps
Width : 1 920 pixels
Height : 1 080 pixels
Display aspect ratio : 16:9
Frame rate mode : Constant
Frame rate : 23.976 fps
Color space : YUV
Chroma subsampling : 4:2:0
Bit depth : 8 bits
Scan type : Progressive
Bits/(Pixel*Frame) : 0.373
Stream size : 13.0 GiB (88%)
Title : GORESEWAGE
Language : English
Default : Yes
Forced : No
Color primaries : BT.709
Transfer characteristics : BT.709
Matrix coefficients : BT.709
Audio #2
ID : 2
Format : AC-3
Format/Info : Audio Coding 3
Mode extension : CM (complete main)
Format settings, Endianness : Big
Codec ID : A_AC3
Duration : 1h 40mn
Bit rate mode : Constant
Bit rate : 192 Kbps
Channel(s) : 2 channels
Channel positions : Front: L R
Sampling rate : 48.0 KHz
Bit depth : 16 bits
Compression mode : Lossy
Stream size : 138 MiB (1%)
Title : Профессиональный (многоголосый закадровый) НТВ+
Language : Russian
Default : Yes
Forced : No
Audio #3
ID : 3
Format : DTS
Format/Info : Digital Theater Systems
Format profile : MA / Core
Codec ID : A_DTS
Duration : 1h 40mn
Bit rate mode : Variable
Bit rate : 1 561 Kbps / 1 510 Kbps
Channel(s) : 6 channels
Channel positions : Front: L C R, Side: L R, LFE
Sampling rate : 48.0 KHz
Bit depth : 24 bits
Compression mode : Lossless / Lossy
Title : Оригинал
Language : English
Default : No
Forced : No
Audio #4
ID : 4
Format : DTS
Format/Info : Digital Theater Systems
Codec ID : A_DTS
Duration : 1h 40mn
Bit rate mode : Constant
Bit rate : 320 Kbps
Channel(s) : 2 channels
Channel positions : Front: L R
Sampling rate : 48.0 KHz
Bit depth : 24 bits
Compression mode : Lossy
Stream size : 230 MiB (2%)
Title : Комментарии
Language : English
Default : No
Forced : No
Menu
00:00:00.000 : en:00:00:00.000
00:06:52.203 : en:00:06:52.203
00:16:55.640 : en:00:16:55.640
00:28:48.602 : en:00:28:48.602
00:37:44.679 : en:00:37:44.679
00:47:15.833 : en:00:47:15.833
00:56:52.618 : en:00:56:52.618
01:07:39.764 : en:01:07:39.764
01:20:11.849 : en:01:20:11.849
01:28:24.382 : en:01:28:24.382

Полноразмерные постеры

Other forum [Profile] [PM]
Display posts from previous:    
Reply to topic

The time now is: Today 10:40

All times are GMT + 3 Hours



You cannot post new topics in this forum
You cannot reply to topics in this forum
You cannot edit your posts in this forum
You cannot delete your posts in this forum
You cannot vote in polls in this forum
You cannot attach files in this forum
You cannot download files in this forum