Today is a free download without charge Download

Mass Effect: Ushinawareta Paragon / Mass Effect: Paragon Lost / Масс Эффект: Героям здесь не место [2012, MV] BDRip 720p Eng+Rus [Raw]

Reply to topic
 
Author
Message

UndegraundMen ®

Longevity: 8 years 11 months

Posts: 25145

Торрент-статистика

Post 23-Apr-2013 00:00

[Quote]

Mass Effect: Ushinawareta Paragon / Mass Effect: Paragon Lost / Масс Эффект: Героям здесь не место- Жанр: фантастика, приключения, боевик
Тип: Фильм
Продолжительность: 01:34:13
Выпуск: 13.10.2012
Режиссер: Такэути Ацуси
Студия:
Качество: BDRip
Формат: MKV
Видео: x264, 1280х720, 4 666 kbps, 23.976 fps [DON]
Аудио: ac3, 640 kbps, 48 Hz, 6 ch (английская и русская)
Субтитры: Ass, полные, встроенные
Релиз: AniFilm.TV
Переводчики: Shift (Dimak и Jaga)
Озвучивание: Near, E-Rotic, MAVI, aOx, Lali, Mosa, Акварелька, Муневра, Мулентий, Стефан
Тайминг: Мулентий
Работа со звуком: Мулентий
Описание:
Mass Effect: Paragon Lost является приквелом к игре Mass Effect 3. В центре сюжета - начало карьеры офицера Альянса Джеймса Веги. Джеймс приходит в элитный отряд спецназа Альянса в начале борьбы с таинственной угрозой, известной как Коллекционеры. Состоя на службе в отдалённой звёздной системе, Джеймс Вега и его напарники должны защитить граждан колонии от вторжения неизвестных, которые пытаются похитить людей.

Тех. параметры:

General
Format : Matroska
Format version : Version 2
File size : 3.92 GiB
Duration : 1h 34mn
Overall bit rate : 5 946 Kbps
Encoded date : UTC 2013-04-21 22:19:43
Writing application : mkvmerge v3.3.0 ('Language') built on Mar 24 2010 14:59:24
Writing library : libebml v0.8.0 + libmatroska v0.9.0
Attachment : Yes
Video
ID : 1
Format : AVC
Format/Info : Advanced Video Codec
Format profile : [url=mailto:[email protected]][email protected][/url]
Format settings, CABAC : Yes
Format settings, ReFrames : 9 frames
Codec ID : V_MPEG4/ISO/AVC
Duration : 1h 34mn
Bit rate : 4 666 Kbps
Width : 1 280 pixels
Height : 720 pixels
Display aspect ratio : 16:9
Frame rate mode : Constant
Frame rate : 23.976 fps
Color space : YUV
Chroma subsampling : 4:2:0
Bit depth : 8 bits
Scan type : Progressive
Bits/(Pixel*Frame) : 0.211
Stream size : 3.00 GiB (76%)
Title : Mass Effect: Paragon Lost 2012 720p BluRay DD5.1 x264-DON
Writing library : x264 core 129 r2230 1cffe9f
Encoding settings : cabac=1 / ref=9 / deblock=1:1:1 / analyse=0x3:0x133 / me=tesa / subme=10 / psy=1 / psy_rd=0.40:0.00 / mixed_ref=1 / me_range=24 / chroma_me=1 / trellis=2 / 8x8dct=1 / cqm=0 / deadzone=21,11 / fast_pskip=0 / chroma_qp_offset=-2 / threads=6 / lookahead_threads=1 / sliced_threads=0 / nr=0 / decimate=0 / interlaced=0 / bluray_compat=0 / constrained_intra=0 / bframes=9 / b_pyramid=2 / b_adapt=2 / b_bias=0 / direct=3 / weightb=1 / open_gop=0 / weightp=2 / keyint=250 / keyint_min=23 / scenecut=40 / intra_refresh=0 / rc_lookahead=60 / rc=2pass / mbtree=0 / bitrate=4666 / ratetol=1.0 / qcomp=0.60 / qpmin=0 / qpmax=69 / qpstep=4 / cplxblur=20.0 / qblur=0.5 / vbv_maxrate=50000 / vbv_bufsize=62500 / nal_hrd=none / ip_ratio=1.40 / pb_ratio=1.20 / aq=1:0.60
Language : English
Default : No
Forced : No
Audio #1
ID : 2
Format : AC-3
Format/Info : Audio Coding 3
Mode extension : CM (complete main)
Format settings, Endianness : Big
Codec ID : A_AC3
Duration : 1h 34mn
Bit rate mode : Constant
Bit rate : 640 Kbps
Channel(s) : 6 channels
Channel positions : Front: L C R, Side: L R, LFE
Sampling rate : 48.0 KHz
Bit depth : 16 bits
Compression mode : Lossy
Stream size : 432 MiB (11%)
Title : Russian AniFilm.Tv (MVO)
Language : Russian
Default : Yes
Forced : Yes
Audio #2
ID : 3
Format : AC-3
Format/Info : Audio Coding 3
Mode extension : CM (complete main)
Format settings, Endianness : Big
Codec ID : A_AC3
Duration : 1h 34mn
Bit rate mode : Constant
Bit rate : 640 Kbps
Channel(s) : 6 channels
Channel positions : Front: L C R, Side: L R, LFE
Sampling rate : 48.0 KHz
Bit depth : 16 bits
Compression mode : Lossy
Stream size : 432 MiB (11%)
Title : English DD5.1
Language : English
Default : No
Forced : No
Text
ID : 4
Format : ASS
Codec ID : S_TEXT/ASS
Codec ID/Info : Advanced Sub Station Alpha
Compression mode : Lossless
Title : Russian Sub [Shift]
Language : Russian
Default : No
Forced : No
Menu
00:00:00.000 : :00:00:00.000
00:00:58.058 : :00:00:58.058
00:05:07.641 : :00:05:07.641
00:09:56.054 : :00:09:56.054
00:13:28.766 : :00:13:28.766
00:21:30.289 : :00:21:30.289
00:25:38.120 : :00:25:38.120
00:35:20.327 : :00:35:20.327
00:40:03.735 : :00:40:03.735
00:46:01.175 : :00:46:01.175
00:52:35.361 : :00:52:35.361
00:54:46.116 : :00:54:46.116
01:01:04.452 : :01:01:04.452
01:04:10.013 : :01:04:10.013
01:09:28.623 : :01:09:28.623
01:11:46.928 : :01:11:46.928
01:13:24.734 : :01:13:24.734
01:18:57.816 : :01:18:57.816
01:22:24.606 : :01:22:24.606
01:24:30.023 : :01:24:30.023
01:30:45.440 : :01:30:45.440
01:34:13.189 : :01:34:13.189
-            -Время раздачи: До первых сидов
Other forum [Profile] [PM]
Display posts from previous:    
Reply to topic

The time now is: Today 12:21

All times are GMT + 3 Hours



You cannot post new topics in this forum
You cannot reply to topics in this forum
You cannot edit your posts in this forum
You cannot delete your posts in this forum
You cannot vote in polls in this forum
You cannot attach files in this forum
You cannot download files in this forum