Today is a free download without charge Download

Ванильное небо / Vanilla Sky (Кэмерон Кроу / Cameron Crowe) [2001, США, Испания, фантастика, триллер, мелодрама, детектив, WEB-DL 720p] Dub + MVO + VO (Завгородний) + AVO (Живов) + Original Eng + Subs (Rus, Eng)

Reply to topic
 
Author
Message

Omen ®

Longevity: 8 years 5 months

Posts: 181087

Торрент-статистика

Post 22-Apr-2013 15:46

[Quote]

-Ванильное небо / Vanilla Sky Страна: США, Испания
Жанр: Фантастика, триллер, мелодрама, детектив
Год выпуска: 2001
Продолжительность: 02:16:13-Перевод 1: Профессиональный (полное дублирование)
Перевод 2: Профессиональный (многоголосый закадровый)
Перевод 3: Одноголосый закадровый |Владимир Завгородний|
Перевод 4: Авторский (одноголосый закадровый) |Ю. Живов|
Cубтитры: английские, русские
Оригинальная аудиодорожка: английский -Режиссер: Кэмерон Кроу /Cameron Crowe-В ролях-Том Круз, Пенелопа Крус, Кэмерон Диаз, Курт Рассел, Джейсон Ли, Ноа Тейлор, Тимоти Сполл, Тильда Суинтон, Майкл Шэннон, Дилэйна Митчел, Дилэйна Митчел, Джонни Галецки-Описание-У богатого плэйбоя Дэвида было все: деньги, свой собственный издательский дом, дорогая машина и квартира в респектабельном районе Нью-Йорка, друг-писатель и подружка Джулианна, даже враги, в лице семи управляющих его компанией, тоже были. Так он и жил без оглядки, пока в один прекрасный момент не встретил Софию. Его жизнь круто изменилась вскоре после этой встречи, Дэвид попал в автокатастрофу и очнулся после комы инвалидом с изуродованным лицом, которое приходится прикрывать «эстетическим протезом», а на самом деле простой маской. А дальше его новая жизнь обернулась кошмарным сном, от которого нельзя проснуться.-Качество видео: WEB-DL-Контейнер: MKV-Видео: AVC, 1280x718 (16:9), ~3899 kbps, 23,976 fps,
Аудио: AC-3, 448 kbps, Dolby Digital, 3/2 (L,C,R,l,r) + LFE ch, 48 KHz |Дубляж|
Аудио: AC-3, 448 kbps, Dolby Digital, 3/2 (L,C,R,l,r) + LFE ch, 48 KHz |MVO|
Аудио: AC-3, 448 kbps, Dolby Digital, 3/2 (L,C,R,l,r) + LFE ch, 48 KHz |VO_Завгородний|
Аудио: AC-3, 192 kbps, 2 ch, 48 KHz |AVO_Живов|
Аудио: AC-3, 448 kbps, Dolby Digital, 3/2 (L,C,R,l,r) + LFE ch, 48 KHz |Original|
Формат субтитров: softsub (SRT)
Главы: есть-

MediaInfo

Полное имя : H:\Vanilla_Sky.2001_WEB-DL_720p.mkv
Формат : Matroska
Версия формата : Version 2
Размер файла : 5,71 Гбайт
Продолжительность : 2 ч. 16 м.
Общий поток : 5998 Кбит/сек
Название фильма : Ванильное небо / Vanilla Sky
Дата кодирования : UTC 2013-04-22 09:09:01
Программа кодирования : mkvmerge v5.5.0 ('Healer') built on Apr 24 2012 23:47:03
Библиотека кодирования : libebml v1.2.3 + libmatroska v1.3.0
Видео
Идентификатор : 1
Формат : AVC
Формат/Информация : Advanced Video Codec
Профиль формата : [email protected]
Параметр CABAC формата : Нет
Параметр ReFrames формата : 2 кадра
Идентификатор кодека : V_MPEG4/ISO/AVC
Продолжительность : 2 ч. 16 м.
Битрейт : 3895 Кбит/сек
Ширина : 1280 пикселей
Высота : 718 пикселей
Соотношение сторон : 16:9
Частота кадров : 23,976 кадра/сек
Цветовое пространство : YUV
Субдискретизация насыщенности : 4:2:0
Битовая глубина : 8 бит
Тип развёртки : Прогрессивная
Бит/(Пиксели*Кадры) : 0.177
Размер потока : 3,71 Гбайт (65%)
Заголовок : Ванильное небо / Vanilla Sky
Язык : English
Default : Да
Forced : Нет
Основные цвета : BT.709-5, BT.1361, IEC 61966-2-4, SMPTE RP177
Характеристики трансфера : BT.709-5, BT.1361
Коэффициенты матрицы : BT.709-5, BT.1361, IEC 61966-2-4 709, SMPTE RP177
Аудио #1
Идентификатор : 2
Формат : AC-3
Формат/Информация : Audio Coding 3
Расширение режима : CM (complete main)
Параметр Endianness формата : Big
Идентификатор кодека : A_AC3
Продолжительность : 2 ч. 16 м.
Вид битрейта : Постоянный
Битрейт : 448 Кбит/сек
Каналы : 6 каналов
Расположение каналов : Front: L C R, Side: L R, LFE
Частота : 48,0 КГц
Битовая глубина : 16 бит
Метод сжатия : С потерями
Размер потока : 436 Мбайт (7%)
Заголовок : Dub
Язык : Russian
Default : Да
Forced : Нет
Аудио #2
Идентификатор : 3
Формат : AC-3
Формат/Информация : Audio Coding 3
Расширение режима : CM (complete main)
Параметр Endianness формата : Big
Идентификатор кодека : A_AC3
Продолжительность : 2 ч. 16 м.
Вид битрейта : Постоянный
Битрейт : 448 Кбит/сек
Каналы : 6 каналов
Расположение каналов : Front: L C R, Side: L R, LFE
Частота : 48,0 КГц
Битовая глубина : 16 бит
Метод сжатия : С потерями
Размер потока : 436 Мбайт (7%)
Заголовок : MVO_448
Язык : Russian
Default : Нет
Forced : Нет
Аудио #3
Идентификатор : 4
Формат : AC-3
Формат/Информация : Audio Coding 3
Расширение режима : CM (complete main)
Параметр Endianness формата : Big
Идентификатор кодека : A_AC3
Продолжительность : 2 ч. 16 м.
Вид битрейта : Постоянный
Битрейт : 448 Кбит/сек
Каналы : 6 каналов
Расположение каналов : Front: L C R, Side: L R, LFE
Частота : 48,0 КГц
Битовая глубина : 16 бит
Метод сжатия : С потерями
Размер потока : 436 Мбайт (7%)
Заголовок : VO_Завгородний
Язык : Russian
Default : Нет
Forced : Нет
Аудио #4
Идентификатор : 5
Формат : AC-3
Формат/Информация : Audio Coding 3
Расширение режима : CM (complete main)
Параметр Endianness формата : Big
Идентификатор кодека : A_AC3
Продолжительность : 2 ч. 16 м.
Вид битрейта : Постоянный
Битрейт : 192 Кбит/сек
Каналы : 2 канала
Расположение каналов : Front: L R
Частота : 48,0 КГц
Битовая глубина : 16 бит
Метод сжатия : С потерями
Размер потока : 187 Мбайт (3%)
Заголовок : AVO_Живов
Язык : Russian
Default : Нет
Forced : Нет
Аудио #5
Идентификатор : 6
Формат : AC-3
Формат/Информация : Audio Coding 3
Расширение режима : CM (complete main)
Параметр Endianness формата : Big
Идентификатор кодека : A_AC3
Продолжительность : 2 ч. 16 м.
Вид битрейта : Постоянный
Битрейт : 448 Кбит/сек
Каналы : 6 каналов
Расположение каналов : Front: L C R, Side: L R, LFE
Частота : 48,0 КГц
Битовая глубина : 16 бит
Метод сжатия : С потерями
Размер потока : 436 Мбайт (7%)
Заголовок : Original_448
Язык : English
Default : Нет
Forced : Нет
Текст #1
Идентификатор : 7
Формат : UTF-8
Идентификатор кодека : S_TEXT/UTF8
Идентификатор кодека/Информация : UTF-8 Plain Text
Язык : Russian
Default : Да
Forced : Нет
Текст #2
Идентификатор : 8
Формат : UTF-8
Идентификатор кодека : S_TEXT/UTF8
Идентификатор кодека/Информация : UTF-8 Plain Text
Язык : English
Default : Нет
Forced : Нет
Меню
00:00:00.000 : en:Everything in Its Right Place
00:06:24.000 : en:All the Right Friends
00:10:57.000 : en:Defending the Kingdom
00:15:10.000 : en:My Favorite Things
00:19:22.000 : en:Keep on Pushin'
00:22:46.000 : en:Directions
00:27:03.000 : en:Her Apartment
00:30:28.000 : en:Solsbury Hill
00:37:49.000 : en:Last Goodbye
00:43:35.000 : en:Lifestyle Mishap
00:51:42.000 : en:Helpful Unit
00:54:52.000 : en:This Is Me Smiling
00:59:03.000 : en:Rez
01:06:41.000 : en:Sweetness Follows
01:10:45.000 : en:The Splice
01:13:08.000 : en:Dig Deep, David
01:20:13.000 : en:Fourth Time Around
01:24:01.000 : en:I Am Sofia
01:28:58.000 : en:Revolution of the Mind
01:33:06.000 : en:Problems?
01:35:24.000 : en:Can We Still Be Friends
01:42:40.000 : en:Opening Act
01:45:59.000 : en:The Healing Room
01:52:40.000 : en:Good Vibrations
01:57:57.000 : en:Ladies and Gentlemen We Are Floating in Space
02:01:48.000 : en:Morality as Home Entertainment
02:06:25.000 : en:I'll Find You Again
02:09:27.000 : en:Where Do I Begin

Скриншоты

Дополнительно

DUB, MVO и оригинал взяты с ЭТОЙ раздачи
VO- ОТСЮДА
AVO- ОТСЮДА-В дорожке с Живовым присутствует заметный плавающий (~200) рассинхрон примерно с 1ч27м по 1ч35м. Как победить не знаю, изначально дорожка разбита на две части. Длиннее на 13 с. т.к. присутствует заставка в начале. Простое склеивание и подгонка не работает, корректно синхронизируется только одна из частей. В другой половине получается плавающий рассинхрон. Подгонял по отдельности каждую часть. Опыта у меня в таком деле мало, может и есть способы адекватные. Оставляю на суд модератора. Просто без "Живов" раздача будет не правильная Вот сэмпл с рассинхроном: СЭМПЛ
Other forum [Profile] [PM]
Display posts from previous:    
Reply to topic

The time now is: Today 10:35

All times are GMT + 3 Hours



You cannot post new topics in this forum
You cannot reply to topics in this forum
You cannot edit your posts in this forum
You cannot delete your posts in this forum
You cannot vote in polls in this forum
You cannot attach files in this forum
You cannot download files in this forum