Today is a free download without charge Download

Шальные деньги: Стокгольмский нуар / Snabba cash II / Easy Money 2 (Бабак Наджафи / Babak Najafi) [2012, Швеция, боевик, триллер, драма, криминал, BDRip 720p] DVO (Сладкая Парочка) + Original (Swe) + Subs (Dan, Nor, Swe, Fin)

Reply to topic
 
Author
Message

Omen ®

Longevity: 8 years 5 months

Posts: 181087

Торрент-статистика

Post 22-Apr-2013 11:42

[Quote]

Шальные деньги: Стокгольмский нуар / Snabba cash II / Easy Money 2 Страна: Швеция
Студия: SVT, Nordsvensk Filmunderhallning, ...
Жанр: боевик, триллер, драма, криминал
Год выпуска: 2012
Продолжительность: 01:39:46
Перевод: Любительский (двухголосый закадровый) Сладкая Парочка
Cубтитры: датские, шведские, норвежские, финские
Оригинальная аудиодорожка: щведский
Режиссер: Бабак Наджафи / Babak Najafi
В ролях: Юэль Киннаман, Матиас Падин, Драгомир Мрсич, Фарес Фарес, Мадлен Мартин, Деян Чукич, Юэль Спира, Лиза Хенни, Рикардо Марселионо Аранеда Морено, Луис Сифунтес
Описание:
После трех лет заключения Ю. В. получает первую «увольнительную», но обстоятельства складываются так, что вернуться за решетку он уже не может… Скрывающийся от правосудия чилиец Хорхе планирует мега-сделку с кокаином, которая должна обогатить его раз и на всегда, но жизнь вносит жестокие коррективы в его план… Сумка с принадлежащими югославской мафии 10 миллионами крон путешествует по Стокгольму, переходя из рук в руки и оставляя за собой кровавый след…
- -Тип релиза: BDRip 720p (рип от TayTO)
Контейнер: MKV
Видео: AVC (x264), 1280x544 (2,35:1) at 24,000 fps, 5183 Кbps, 0.315 bpp
Аудио 1: AC3; 192 Kbps; CBR; 2 ch; 48 khz | DVO - Сладкая Парочка |
Аудио 2: DTS; 1536 Kbps; CBR; 6 ch; 48 khz; 24 bit | Шведский |
Формат субтитров: softsub (SRT)

Скриншоты || x264 Info || MediaInfo || Notes

Notes:

Цитата:

MediaInfo

Код:
Общее
Уникальный идентификатор                 : 178064677378991019091113357569354670308 (0x85F602695C7B0AA7BBF8BF93EB68A0E4)
Полное имя                               : Шальные деньги. Стокгольмский нуар.2012.DVO.720p.BluRay.x264-TayTO.mkv
Формат                                   : Matroska
Версия формата                           : Version 4 / Version 2
Размер файла                             : 4,89 Гбайт
Продолжительность                        : 1 ч. 39 м.
Общий поток                              : 7023 Кбит/сек
Название фильма                          : profile.php?mode=viewprofile&u=22488948
Дата кодирования                         : UTC 2013-04-21 09:43:45
Программа кодирования                    : mkvmerge v6.1.0 ('Old Devil') built on Mar  2 2013 14:32:37
Библиотека кодирования                   : libebml v1.3.0 + libmatroska v1.4.0
Видео
Идентификатор                            : 1
Формат                                   : AVC
Формат/Информация                        : Advanced Video Codec
Профиль формата                          : [email protected]
Параметр CABAC формата                   : Да
Параметр ReFrames формата                : 12 кадров
Идентификатор кодека                     : V_MPEG4/ISO/AVC
Продолжительность                        : 1 ч. 39 м.
Битрейт                                  : 5183 Кбит/сек
Ширина                                   : 1280 пикселей
Высота                                   : 536 пикселей
Соотношение сторон                       : 2,40:1
Режим частоты кадров                     : Постоянный
Частота кадров                           : 24,000 кадра/сек
Цветовое пространство                    : YUV
Субдискретизация насыщенности            : 4:2:0
Битовая глубина                          : 8 бит
Тип развёртки                            : Прогрессивная
Бит/(Пиксели*Кадры)                      : 0.315
Размер потока                            : 3,61 Гбайт (74%)
Библиотека кодирования                   : x264 core 129 r2245 bc13772
Настройки программы                      : cabac=1 / ref=12 / deblock=1:-3:-3 / analyse=0x3:0x133 / me=tesa / subme=11 / psy=1 / psy_rd=1.10:0.00 / mixed_ref=1 / me_range=16 / chroma_me=1 / trellis=2 / 8x8dct=1 / cqm=0 / deadzone=21,11 / fast_pskip=0 / chroma_qp_offset=-2 / threads=12 / lookahead_threads=2 / sliced_threads=0 / nr=0 / decimate=1 / interlaced=0 / bluray_compat=0 / constrained_intra=0 / bframes=7 / b_pyramid=2 / b_adapt=2 / b_bias=0 / direct=3 / weightb=1 / open_gop=0 / weightp=2 / keyint=250 / keyint_min=24 / scenecut=40 / intra_refresh=0 / rc=crf / mbtree=0 / crf=16.6 / qcomp=0.60 / qpmin=0 / qpmax=69 / qpstep=4 / ip_ratio=1.40 / pb_ratio=1.30 / aq=1:0.70
Язык                                     : English
Default                                  : Да
Forced                                   : Нет
Аудио #1
Идентификатор                            : 2
Формат                                   : AC-3
Формат/Информация                        : Audio Coding 3
Расширение режима                        : CM (complete main)
Параметр Endianness формата              : Big
Идентификатор кодека                     : A_AC3
Продолжительность                        : 1 ч. 39 м.
Вид битрейта                             : Постоянный
Битрейт                                  : 192 Кбит/сек
Каналы                                   : 2 канала
Расположение каналов                     : Front: L R
Частота                                  : 48,0 КГц
Битовая глубина                          : 16 бит
Метод сжатия                             : С потерями
Размер потока                            : 137 Мбайт (3%)
Заголовок                                : DVO [Сладкая Парочка]
Язык                                     : Russian
Default                                  : Да
Forced                                   : Нет
Аудио #2
Идентификатор                            : 3
Формат                                   : DTS
Формат/Информация                        : Digital Theater Systems
Режим                                    : 16
Параметр Endianness формата              : Big
Идентификатор кодека                     : A_DTS
Продолжительность                        : 1 ч. 39 м.
Вид битрейта                             : Постоянный
Битрейт                                  : 1509 Кбит/сек
Каналы                                   : 6 каналов
Расположение каналов                     : Front: L C R, Side: L R, LFE
Частота                                  : 48,0 КГц
Битовая глубина                          : 24 бит
Метод сжатия                             : С потерями
Размер потока                            : 1,05 Гбайт (21%)
Язык                                     : Swedish
Default                                  : Нет
Forced                                   : Нет
Текст #1
Идентификатор                            : 4
Формат                                   : UTF-8
Идентификатор кодека                     : S_TEXT/UTF8
Идентификатор кодека/Информация          : UTF-8 Plain Text
Язык                                     : Danish
Default                                  : Нет
Forced                                   : Нет
Текст #2
Идентификатор                            : 5
Формат                                   : UTF-8
Идентификатор кодека                     : S_TEXT/UTF8
Идентификатор кодека/Информация          : UTF-8 Plain Text
Язык                                     : Norwegian
Default                                  : Нет
Forced                                   : Нет
Текст #3
Идентификатор                            : 6
Формат                                   : UTF-8
Идентификатор кодека                     : S_TEXT/UTF8
Идентификатор кодека/Информация          : UTF-8 Plain Text
Язык                                     : Swedish
Default                                  : Нет
Forced                                   : Нет
Текст #4
Идентификатор                            : 7
Формат                                   : UTF-8
Идентификатор кодека                     : S_TEXT/UTF8
Идентификатор кодека/Информация          : UTF-8 Plain Text
Язык                                     : Finnish
Default                                  : Нет
Forced                                   : Нет
Текст #5
Идентификатор                            : 8
Формат                                   : UTF-8
Идентификатор кодека                     : S_TEXT/UTF8
Идентификатор кодека/Информация          : UTF-8 Plain Text
Язык                                     : Swedish
Default                                  : Нет
Forced                                   : Нет
Меню
00:00:00.000                             : en:00:00:00.000
00:09:52.125                             : en:00:09:52.125
00:20:00.000                             : en:00:20:00.000
00:30:00.000                             : en:00:30:00.000
00:40:00.000                             : en:00:40:00.000
00:50:00.000                             : en:00:50:00.000
01:00:00.000                             : en:01:00:00.000
01:10:00.000                             : en:01:10:00.000
01:20:00.000                             : en:01:20:00.000
01:33:56.250                             : en:01:33:56.250

x264 Info

x264 [info]: frame I:1002 Avg QP:14.74 size: 92619
x264 [info]: frame P:31662 Avg QP:15.76 size: 44198
x264 [info]: frame B:111012 Avg QP:18.13 size: 22415
x264 [info]: consecutive B-frames: 2.0% 3.1% 12.2% 13.1% 12.9% 48.8% 5.1% 2.6%
Other forum [Profile] [PM]
Display posts from previous:    
Reply to topic

The time now is: Today 12:25

All times are GMT + 3 Hours



You cannot post new topics in this forum
You cannot reply to topics in this forum
You cannot edit your posts in this forum
You cannot delete your posts in this forum
You cannot vote in polls in this forum
You cannot attach files in this forum
You cannot download files in this forum