Today is a free download without charge Download

Ломбарт-Макеты 2011 (live in home) [2011, Russian Brith Grunge, HDCam]

Reply to topic
 
Author
Message

Omen ®

Longevity: 8 years 3 months

Posts: 181087

Торрент-статистика

Post 22-Apr-2013 11:42

[Quote]

Ломбарт-Макеты 2011 (live in home)
Жанр: Russian Brith Grunge
Продолжительность: 1:10:41
Год выпуска: 2011
Описание: 01. Интро
02.Счастливые Дни
03.Кайфовая
04.Я Не Умею
05.Мне Не Дано
06.Выход Из Суеты
07.Может Наугад
08.Будущее Не Для Нас
09.INSTRUMENTALLING
10.Мне....
11.Видимое....
12.Ты Пишешь Письма
13.Новый Город
14.Каждую Ночь
15.Беспризорные Души
16.Параллельный Мир
17.В Долине Света
18.Кайф Или Больше (ГРОБ кавер)
Качество: HDCam
Контейнер: AVI
Видео кодек: XviD
Аудио кодек: MP3
Видео: XviD 16:9 2 761 Kbps 25.000 fps
Аудио: MP3 256 Kbps 44.1 KHz 2 channels

Отчёт MediaInfo / BDInfo

Format : AVIFormat/Info : Audio Video InterleaveFormat profile : OpenDMLFile size : 1.50 GiBDuration : 1h 10mnOverall bit rate : 3 030 KbpsWriting application : MEncoder SVN-r30881(20100311-gcc4.3.3)Writing library : MPlayer
VideoID : 0Format : MPEG-4 VisualFormat profile : Advanced [email protected] settings, BVOP : YesFormat settings, QPel : NoFormat settings, GMC : No warppointsFormat settings, Matrix : Default (H.263)Codec ID : XVIDCodec ID/Hint : XviDDuration : 1h 10mnBit rate : 2 761 KbpsWidth : 720 pixelsHeight : 576 pixelsDisplay aspect ratio : 16:9Frame rate : 25.000 fpsStandard : PALColor space : YUVChroma subsampling : 4:2:0Bit depth : 8 bitsScan type : ProgressiveCompression mode : LossyBits/(Pixel*Frame) : 0.266Stream size : 1.36 GiB (91%)Writing library : XviD 1.2.1 (UTC 2008-12-04)
AudioID : 1Format : MPEG AudioFormat version : Version 1Format profile : Layer 3Mode : Joint stereoCodec ID : 55Codec ID/Hint : MP3Duration : 1h 10mnBit rate mode : ConstantBit rate : 256 KbpsChannel(s) : 2 channelsSampling rate : 44.1 KHzCompression mode : LossyVideo delay : 40msStream size : 129 MiB (8%)Alignment : Aligned on interleavesInterleave, duration : 26 ms (0.65 video frame)Interleave, preload duration : 522 ms

Скриншоты


Other forum [Profile] [PM]
Display posts from previous:    
Reply to topic

The time now is: Today 13:08

All times are GMT + 3 Hours



You cannot post new topics in this forum
You cannot reply to topics in this forum
You cannot edit your posts in this forum
You cannot delete your posts in this forum
You cannot vote in polls in this forum
You cannot attach files in this forum
You cannot download files in this forum