Today is a free download without charge Download

Ангелы Чарли 2: Только вперед / Charlie's Angels: Full Throttle (МакДжи) [2003, боевик, комедия, криминал, приключения, BDRip 1080p]

Reply to topic
 
Author
Message

Delia ®

Gender:

Longevity: 11 years

Posts: 1821

Торрент-статистика

Post 22-Apr-2013 09:40

[Quote]

-Ангелы Чарли 2: Только вперед
Charlie's Angels: Full Throttle«This summer the Angels are back.»--
Год выпуска: 2003
Страна: США
Жанр: боевик, комедия, криминал, приключения
Продолжительность: 01:47:06
Перевод: Профессиональный (дублированный)
Субтитры: Russian (UTF-8), English (UTF-8)
Режиссер: МакДжи
Сценарий: Джон Огаст, Иван Гофф, Бен Робертс, ...
Продюсер: Дрю Бэрримор, Леонард Голдберг, Нэнси Джавонен, ...
Оператор: Рассел Карпентер
Композитор: Эд Ширмёр
Художник: Дж. Майкл Рива, Дэвид Ф. Классен, Ричард Ф. Мейс, ...
Монтаж: Уэйн Уормэн-В ролях: Кэмерон Диаз / Cameron Diaz (Natalie Cook, $ 20 000 000 ), Дрю Бэрримор / Drew Barrymore (Dylan Sanders, $ 14 000 000 ), Люси Лью / Lucy Liu (Alex Munday, $ 4 000 000 ), Берни Мак / Bernie Mac (Jimmy Bosley), Криспин Гловер / Crispin Glover (Thin Man), Джастин Теру / Justin Theroux (Seamus O'Grady), Роберт Патрик / Robert Patrick (Ray Carter), Деми Мур / Demi Moore (Madison Lee, $ 2 000 000 ), Родриго Санторо / Rodrigo Santoro (Randy Emmers), Шайа ЛаБаф / Shia LaBeouf (Max)
-Описание: Самое мощное секретное оружие Америки снова в действии! Ангелы Чарли готовы к новым подвигам! На сей раз главный злодей практически неотразим. Он красив, сексапилен, все умеет — серфинг, мотогонки.Девчонкам придется нелегко, им нужно найти похищенные титановые кольца. Это не простые украшения, а особые носители информации, на которых микротекстом выгравированы имена и адреса всех участников федеральной программы защиты свидетелей… Доброе утро, Ангелы! За работу!
Бюджет: $120 000 000
Сборы в США: $100 830 111
Сборы в мире: + $158 345 677 = $259 175 788
Сборы в России: $3 295 277
Зрители: США 16.7 млн , Великобритания 2.59 млн , Бразилия 2.16 млн
Премьера (мир): 18 июня 2003, ...
Премьера (РФ): 4 сентября 2003, «Каскад»
Релиз на DVD: 28 октября 2010, «Columbia/Sony», ...
Релиз на Blu-Ray: 30 апреля 2013, «Columbia/Sony», ...
-
Рейтинг MPAA: Детям до 13 лет просмотр не желателен
Рейтинг ВКИП: для детей старше 16 лет-Релиз группы: -
Качество: BDRip
Формат: MKV
Видео кодек: H.264 (AVC)
Аудио кодеk: AC3
Видео: 1920x800 (2.40:1), 23.976 fps, AVC, 9 539 Kbps
Аудио: Аудио #1: AC3, 640 Kbps, 48.0 KHz, 6 ch
Аудио #2: AC3, 448 Kbps, 48.0 KHz, 6 ch


--

МедиаИнфо

Код:
General
Unique ID                                : 245004363356918410022204074407638631640 (0xB8521FBDC5FC5696B0DC396153E484D8)
Complete name                            : Charlie's Angels(2003)1080р.F-HD.mkv
Format                                   : Matroska
Format version                           : Version 4 / Version 2
File size                                : 7.95 GiB
Duration                                 : 1h 47mn
Overall bit rate                         : 10.6 Mbps
Encoded date                             : UTC 2013-04-22 05:28:47
Writing application                      : mkvmerge v6.0.0 ('Coming Up For Air') built on Jan 20 2013 09:52:00
Writing library                          : libebml v1.3.0 + libmatroska v1.4.0
Video
ID                                       : 1
Format                                   : AVC
Format/Info                              : Advanced Video Codec
Format profile                           : [email protected]
Format settings, CABAC                   : Yes
Format settings, ReFrames                : 5 frames
Codec ID                                 : V_MPEG4/ISO/AVC
Duration                                 : 1h 47mn
Bit rate                                 : 9 539 Kbps
Width                                    : 1 920 pixels
Height                                   : 800 pixels
Display aspect ratio                     : 2.40:1
Frame rate mode                          : Constant
Frame rate                               : 23.976 fps
Color space                              : YUV
Chroma subsampling                       : 4:2:0
Bit depth                                : 8 bits
Scan type                                : Progressive
Bits/(Pixel*Frame)                       : 0.259
Stream size                              : 6.98 GiB (88%)
Writing library                          : x264 core 129 r2230 1cffe9f
Encoding settings                        : cabac=1 / ref=5 / deblock=1:-3:-3 / analyse=0x3:0x113 / me=umh / subme=11 / psy=1 / psy_rd=0.85:0.05 / mixed_ref=1 / me_range=48 / chroma_me=1 / trellis=2 / 8x8dct=1 / cqm=0 / deadzone=21,11 / fast_pskip=0 / chroma_qp_offset=-3 / threads=6 / lookahead_threads=1 / sliced_threads=0 / nr=0 / decimate=1 / interlaced=0 / bluray_compat=0 / constrained_intra=0 / bframes=8 / b_pyramid=2 / b_adapt=2 / b_bias=0 / direct=3 / weightb=1 / open_gop=0 / weightp=2 / keyint=240 / keyint_min=23 / scenecut=40 / intra_refresh=0 / rc_lookahead=40 / rc=2pass / mbtree=0 / bitrate=9539 / ratetol=1.0 / qcomp=0.80 / qpmin=0 / qpmax=69 / qpstep=4 / cplxblur=20.0 / qblur=0.5 / vbv_maxrate=50000 / vbv_bufsize=65000 / nal_hrd=none / ip_ratio=1.40 / pb_ratio=1.30 / aq=1:0.80
Language                                 : English
Default                                  : Yes
Forced                                   : No
Color primaries                          : BT.709
Transfer characteristics                 : BT.709
Matrix coefficients                      : BT.709
Audio #1
ID                                       : 2
Format                                   : AC-3
Format/Info                              : Audio Coding 3
Mode extension                           : CM (complete main)
Format settings, Endianness              : Big
Codec ID                                 : A_AC3
Duration                                 : 1h 47mn
Bit rate mode                            : Constant
Bit rate                                 : 640 Kbps
Channel(s)                               : 6 channels
Channel positions                        : Front: L C R, Side: L R, LFE
Sampling rate                            : 48.0 KHz
Bit depth                                : 16 bits
Compression mode                         : Lossy
Stream size                              : 490 MiB (6%)
Language                                 : Russian
Default                                  : Yes
Forced                                   : No
Audio #2
ID                                       : 3
Format                                   : AC-3
Format/Info                              : Audio Coding 3
Mode extension                           : CM (complete main)
Format settings, Endianness              : Big
Codec ID                                 : A_AC3
Duration                                 : 1h 47mn
Bit rate mode                            : Constant
Bit rate                                 : 448 Kbps
Channel(s)                               : 6 channels
Channel positions                        : Front: L C R, Side: L R, LFE
Sampling rate                            : 48.0 KHz
Bit depth                                : 16 bits
Compression mode                         : Lossy
Stream size                              : 343 MiB (4%)
Language                                 : English
Default                                  : No
Forced                                   : No
Text #1
ID                                       : 4
Format                                   : UTF-8
Codec ID                                 : S_TEXT/UTF8
Codec ID/Info                            : UTF-8 Plain Text
Language                                 : Russian
Default                                  : No
Forced                                   : No
Text #2
ID                                       : 5
Format                                   : UTF-8
Codec ID                                 : S_TEXT/UTF8
Codec ID/Info                            : UTF-8 Plain Text
Language                                 : English
Default                                  : No
Forced                                   : No
Menu
00:00:00.000                             : en:00:00:00.000
00:09:06.295                             : en:00:09:06.295
00:13:05.493                             : en:00:13:05.493
00:19:37.342                             : en:00:19:37.342
00:29:12.917                             : en:00:29:12.917
00:36:28.769                             : en:00:36:28.769
00:46:09.725                             : en:00:46:09.725
00:51:52.943                             : en:00:51:52.943
00:56:59.916                             : en:00:56:59.916
01:03:13.706                             : en:01:03:13.706
01:06:59.223                             : en:01:06:59.223
01:13:53.262                             : en:01:13:53.262
01:19:54.164                             : en:01:19:54.164
01:26:50.663                             : en:01:26:50.663
01:31:32.778                             : en:01:31:32.778
01:36:27.990                             : en:01:36:27.990

Знаете ли Вы, что...

★ Макса мог сыграть Тайлер Хочлин.
★ Жаклин Смит играет «ангела на пенсии»; она была звездой в оригинальном сериале «Ангелы Чарли».
★ Дрю Бэрримор, также — продюсер фильма, недолюбливает оружие. Вот почему ни один из ангелов в фильме оружием не пользуется.
★ Дом Алекс Мандэй — тот же самый, в котором братья Коэны устроили резиденцию Джека Трехорна в «Большом Лебовски» (1998).
★ Нового Джимми Бозли мог сыграть Джейми Фокс.
★ История «падшего ангела» Мэдисон Ли первоначально разрабатывалась аж для третьей серии про «Ангелов Чарли».
★ В доме мамы Бозли можно заметить фотографию Билла Мюррея. Мюррей сыграл Бозли в первой части «Ангелов Чарли».

Скриншоты

       
       

_________________
Человек – это канат, натянутый между животным и сверхчеловеком, – канат над пропастью.
В человеке ценно то, что он мост, а не цель. Фридрих Ницше
Other forum [Profile] [PM]
Similar theme
Forum Topic Author Torrent Replies Last Post
./templates/default/images/folder_dl.gif Фантастика, фэнтези, ужасы, мистика Морган Ричард - Такеси Ковач 2, Сломанные ангелы [Сергей Краснов, (ЛИ), 2016 г., 192 kbps, MP3] Omen
2 | 0

0 | 711

1

2016-09-12 01:00
Omen Latest
Display posts from previous:    
Reply to topic

The time now is: Today 19:16

All times are GMT + 3 Hours



You cannot post new topics in this forum
You cannot reply to topics in this forum
You cannot edit your posts in this forum
You cannot delete your posts in this forum
You cannot vote in polls in this forum
You cannot attach files in this forum
You cannot download files in this forum