Today is a free download without charge Download

Лжец, лжец / Liar Liar (Том Шэдьяк / Tom Shadyac) [1997, комедия, фэнтези, BDRip 720p] 3xMVO (Премьер Видео Фильм, НТВ, СТС) + AVO (Живов) + 2xVO (Антонов, Завгородний) + Ukr (MVO) + Original (Eng) + Subs

Reply to topic
 
Author
Message

Omen ®

Longevity: 8 years 5 months

Posts: 181087

Торрент-статистика

Post 21-Apr-2013 22:10

[Quote]

Лжец, лжец / Liar Liar Страна: США
Жанр: комедия, фэнтези
Продолжительность: 01:26:29
Год выпуска: 1997
Перевод #1: Профессиональный (многоголосый закадровый) - Премьер Видео Фильм
Перевод #2: Профессиональный (многоголосый закадровый) - НТВ
Перевод #3: Профессиональный (многоголосый закадровый) - СТС
Перевод #4: Авторский (одноголосый закадровый) - Живов
Перевод #5: Одноголосый закадровый - Антонов
Перевод #6: Одноголосый закадровый - Завгородний
Субтитры: Русские, Английские
Режиссёр: Том Шэдьяк / Tom Shadyac
В ролях: Джим Керри (Fletcher Reede), Мора Тирни (Audrey Reede), Джастин Купер (Max Reede), Кэри Элвис (Jerry), Энн Хейни (Greta), Дженнифер Тилли (Samantha Cole), Аманда Донохью (Miranda), Джейсон Бернард (Judge Marshall Stevens), Свузи Кёрц (Dana Appleton), Митч Райан (Mr. Allan)-Бюджет: $45 000 000
Сборы в США: $181 410 615
Сборы в мире: $302 710 615
Мировая премьера
: 21 марта 1997
Релиз на DVD: 6 декабря 2012, "Двадцатый Век Фокс СНГ"
Релиз на Blu-ray: 9 ноября 2010, "Юниверсал Пикчерс Рус"
-Описание: Флетчер Рид - блестящий адвокат и неисправимый лжец. Он по привычке врет жене Одри, сыну Максу и учит клиентов подстраивать правду под свои нужды, перекраивать истину ради своей выгоды. Жена бросает Флетчера из-за его вредной привычки лгать, а сын Макс в свой день рождения, задувая свечи на торте, загадывает только одно желание: «Хочу, чтоб мой любимый папочка перестал постоянно врать».
Желание сбывается, и неожиданно для Флетчера Рида язык, который всегда был его рабочим инструментом, превращается в его главного врага. Флетчер начинает говорить обидную правду своему начальнику и клиентам. Эта правдивость может стоить адвокату работы! Но самое страшное ждет правдивого поневоле Флетчера в зале суда, когда будет слушаться дело о разводе его клиента. Без вранья он не сможет выиграть! Да, этот день своей жизни Флетчер Рид не забудет никогда...-Рейтинг:
kinopoisk.ru: 7.830
imdb.com: 6.70

MPAA: PG-13 - детям до 13 лет просмотр не желателен-Качество: BDRip 720p (спасибо Grimlen)
Формат: MKV
Видео: 1280x688 (1.85:1), 23.976 fps, AVC, ~7440 kbps avg //SAMPLE//
Аудио #1: Russian: DTS Audio / 2.0 / 48 kHz / 768 kbps / 24-bit |Профессиональный (многоголосый закадровый), Премьер Видео Фильм|
Аудио #2: Russian: AC-3 / 2.0 / 48 kHz / 192 kbps |Профессиональный (многоголосый закадровый), НТВ|
Аудио #3: Russian: AC-3 / 2.0 / 48 kHz / 192 kbps |Профессиональный (многоголосый закадровый), СТС|
Аудио #4: Russian: AC-3 / 5.1 / 48 kHz / 448 kbps |Авторский (одноголосый закадровый), Живов|
Аудио #5: Russian: AC-3 / 2.0 / 48 kHz / 192 kbps |Одноголосый закадровый, Антонов|
Аудио #6: Russian: AC-3 / 5.1 / 48 kHz / 448 kbps |Одноголосый закадровый, Завгородний|
Аудио #7: Ukrainian: AC-3 / 2.0 / 48 kHz / 256 kbps |Профессиональный (многоголосый закадровый)|
Аудио #8: English: DTS Audio / 5.1 / 48 kHz / 1509 kbps / 24-bit-

MediaInfo | x264

x264

x264 [info]: frame I:1057 Avg QP:17.22 size:143332
x264 [info]: frame P:27803 Avg QP:19.58 size: 59314
x264 [info]: frame B:95572 Avg QP:21.64 size: 31628
x264 [info]: consecutive B-frames: 1.8% 3.6% 4.6% 39.9% 5.7% 33.3% 1.2% 8.9% 0.2% 0.4% 0.4%
General
Unique ID : 230066001731537357348439255961180015319 (0xAD1519A62F2EFF389139995E9DAB8AD7)
Complete name : E:\HD-Masterskaya\Liar\Liar.Liar.1997.720p.BluRay.Rus.Ukr.Eng.ac3.dts.sub.RuTracker.mkv
Format : Matroska
Format version : Version 4 / Version 2
File size : 6.91 GiB
Duration : 1h 26mn
Overall bit rate : 11.4 Mbps
Movie name : Liar Liar (1997) - Release for RuTracker
Encoded date : UTC 2013-04-21 15:16:40
Writing application : mkvmerge v6.1.0 ('Old Devil') built on Mar 2 2013 14:32:37
Writing library : libebml v1.3.0 + libmatroska v1.4.0
Video
ID : 1
Format : AVC
Format/Info : Advanced Video Codec
Format profile : [email protected]
Format settings, CABAC : Yes
Format settings, ReFrames : 9 frames
Codec ID : V_MPEG4/ISO/AVC
Duration : 1h 26mn
Bit rate : 7 440 Kbps
Width : 1 280 pixels
Height : 688 pixels
Display aspect ratio : 1.85:1
Frame rate mode : Constant
Frame rate : 23.976 fps
Color space : YUV
Chroma subsampling : 4:2:0
Bit depth : 8 bits
Scan type : Progressive
Bits/(Pixel*Frame) : 0.352
Stream size : 4.36 GiB (63%)
Title : Liar.Liar.1997.720p.BluRay.Rus.Ukr.Eng.ac3.dts.sub.RuTracker
Writing library : x264 core 130 r2273 b3065e6
Encoding settings : cabac=1 / ref=9 / deblock=1:-1:-1 / analyse=0x3:0x133 / me=umh / subme=10 / psy=1 / psy_rd=1.00:0.15 / mixed_ref=1 / me_range=48 / chroma_me=1 / trellis=2 / 8x8dct=1 / cqm=0 / deadzone=21,11 / fast_pskip=1 / chroma_qp_offset=-3 / threads=6 / lookahead_threads=1 / sliced_threads=0 / nr=0 / decimate=1 / interlaced=0 / bluray_compat=0 / constrained_intra=0 / bframes=10 / b_pyramid=2 / b_adapt=2 / b_bias=0 / direct=3 / weightb=1 / open_gop=0 / weightp=2 / keyint=240 / keyint_min=23 / scenecut=40 / intra_refresh=0 / rc_lookahead=60 / rc=2pass / mbtree=1 / bitrate=7440 / ratetol=1.0 / qcomp=0.60 / qpmin=0 / qpmax=69 / qpstep=4 / cplxblur=20.0 / qblur=0.5 / vbv_maxrate=50000 / vbv_bufsize=62500 / nal_hrd=none / ip_ratio=1.40 / aq=1:1.00
Language : English
Default : Yes
Forced : No
Audio #1
ID : 2
Format : DTS
Format/Info : Digital Theater Systems
Mode : 16
Format settings, Endianness : Big
Codec ID : A_DTS
Duration : 1h 26mn
Bit rate mode : Constant
Bit rate : 768 Kbps
Channel(s) : 2 channels
Channel positions : Front: L R
Sampling rate : 48.0 KHz
Bit depth : 24 bits
Compression mode : Lossy
Stream size : 475 MiB (7%)
Title : MVO [Премьер Видео Фильм]
Language : Russian
Default : Yes
Forced : No
Audio #2
ID : 3
Format : AC-3
Format/Info : Audio Coding 3
Mode extension : CM (complete main)
Format settings, Endianness : Big
Codec ID : A_AC3
Duration : 1h 26mn
Bit rate mode : Constant
Bit rate : 192 Kbps
Channel(s) : 2 channels
Channel positions : Front: L R
Sampling rate : 48.0 KHz
Bit depth : 16 bits
Compression mode : Lossy
Stream size : 119 MiB (2%)
Title : MVO [НТВ]
Language : Russian
Default : No
Forced : No
Audio #3
ID : 4
Format : AC-3
Format/Info : Audio Coding 3
Mode extension : CM (complete main)
Format settings, Endianness : Big
Codec ID : A_AC3
Duration : 1h 26mn
Bit rate mode : Constant
Bit rate : 192 Kbps
Channel(s) : 2 channels
Channel positions : Front: L R
Sampling rate : 48.0 KHz
Bit depth : 16 bits
Compression mode : Lossy
Stream size : 119 MiB (2%)
Title : MVO [СТС]
Language : Russian
Default : No
Forced : No
Audio #4
ID : 5
Format : AC-3
Format/Info : Audio Coding 3
Mode extension : CM (complete main)
Format settings, Endianness : Big
Codec ID : A_AC3
Duration : 1h 26mn
Bit rate mode : Constant
Bit rate : 448 Kbps
Channel(s) : 6 channels
Channel positions : Front: L C R, Side: L R, LFE
Sampling rate : 48.0 KHz
Bit depth : 16 bits
Compression mode : Lossy
Stream size : 277 MiB (4%)
Title : AVO [Живов]
Language : Russian
Default : No
Forced : No
Audio #5
ID : 6
Format : AC-3
Format/Info : Audio Coding 3
Mode extension : CM (complete main)
Format settings, Endianness : Big
Codec ID : A_AC3
Duration : 1h 26mn
Bit rate mode : Constant
Bit rate : 192 Kbps
Channel(s) : 2 channels
Channel positions : Front: L R
Sampling rate : 48.0 KHz
Bit depth : 16 bits
Compression mode : Lossy
Stream size : 119 MiB (2%)
Title : VO [Антонов]
Language : Russian
Default : No
Forced : No
Audio #6
ID : 7
Format : AC-3
Format/Info : Audio Coding 3
Mode extension : CM (complete main)
Format settings, Endianness : Big
Codec ID : A_AC3
Duration : 1h 26mn
Bit rate mode : Constant
Bit rate : 448 Kbps
Channel(s) : 6 channels
Channel positions : Front: L C R, Side: L R, LFE
Sampling rate : 48.0 KHz
Bit depth : 16 bits
Compression mode : Lossy
Stream size : 277 MiB (4%)
Title : VO [Завгородний]
Language : Russian
Default : No
Forced : No
Audio #7
ID : 8
Format : AC-3
Format/Info : Audio Coding 3
Mode extension : CM (complete main)
Format settings, Endianness : Big
Codec ID : A_AC3
Duration : 1h 26mn
Bit rate mode : Constant
Bit rate : 256 Kbps
Channel(s) : 2 channels
Channel positions : Front: L R
Sampling rate : 48.0 KHz
Bit depth : 16 bits
Compression mode : Lossy
Stream size : 158 MiB (2%)
Language : Ukrainian
Default : No
Forced : No
Audio #8
ID : 9
Format : DTS
Format/Info : Digital Theater Systems
Mode : 16
Format settings, Endianness : Big
Codec ID : A_DTS
Duration : 1h 26mn
Bit rate mode : Constant
Bit rate : 1 509 Kbps
Channel(s) : 6 channels
Channel positions : Front: L C R, Side: L R, LFE
Sampling rate : 48.0 KHz
Bit depth : 24 bits
Compression mode : Lossy
Stream size : 934 MiB (13%)
Language : English
Default : No
Forced : No
Text #1
ID : 10
Format : UTF-8
Codec ID : S_TEXT/UTF8
Codec ID/Info : UTF-8 Plain Text
Language : Russian
Default : No
Forced : No
Text #2
ID : 11
Format : UTF-8
Codec ID : S_TEXT/UTF8
Codec ID/Info : UTF-8 Plain Text
Language : English
Default : No
Forced : No

Скриншоты


-
Other forum [Profile] [PM]
Display posts from previous:    
Reply to topic

The time now is: Today 10:23

All times are GMT + 3 Hours



You cannot post new topics in this forum
You cannot reply to topics in this forum
You cannot edit your posts in this forum
You cannot delete your posts in this forum
You cannot vote in polls in this forum
You cannot attach files in this forum
You cannot download files in this forum