Today is a free download without charge Download

Бытие / Entity (Стив Стоун / Steve Stone) [2012, Великобритания, ужасы, триллер, драма, WEB-DL 720p] DVO (den904 & DeadSno) + Original Eng + Sub Eng

Reply to topic
 
Author
Message

Omen ®

Longevity: 8 years 5 months

Posts: 181087

Торрент-статистика

Post 21-Apr-2013 22:10

[Quote]

Бытие / Entity «We may forget the past, but it never forgets us.» Год выпуска: 2012
Страна: Великобритания
Жанр: ужасы, триллер, драма
Продолжительность: 01:27:33
Перевод: Любительский (двухголосый закадровый) den904 & DeadSno
Оригинальная аудиодорожка: Английская
Субтитры: Английские (Full)
Студия: Nexus DNA, EM Media
Режиссёр: Стив Стоун / Steve Stone
В ролях: Дервла Кирван, Шарлотта Райли, Бранко Томович, Руперт Хилл, Оливер Джексон, Майкл Дэвид Уорден, Стеф Джонс, Клэр Leatherbarrow, Анна Льюис, Адам Питер Марсден и др.
Описание: В 1998 году в неглубоких могилах сибирских лесов было найдено тридцать четыре неопознанных тел. Несмотря на дальнейшие расследования, официального объяснения произошедшего так и не последовало.
В 2010 году группа репортеров телевизионного шоу «Мрачные тайны» решила попытаться пролить свет на этот трагический случай, отправившись в те самые сибирские леса, где были найдены трупы.
  • Кинопоиск
  • IMDB
  • Сэмпл
    Качество: WEB-DL 720p
    Контейнер: MKV
    Видео кодек: MPEG-4 AVC Video
    Аудио кодек: Dolby Digital Audio
    Видео: MPEG-4 AVC Video / 3957 kbps / 1280x720p / 24,000 fps / 16:9 / [email protected]
    Аудио 1: Русский / Dolby Digital Audio / 2.0 / 48 kHz / 192 kbps / 16-bit / DVO den904 & DeadSno
    Аудио 2: English / Dolby Digital Audio / 2.0 / 48 kHz / 192 kbps / 16-bit / Оригинал
    Навигация по главам: да
Цитата:
  • Релиз доступен благодаря проекту GORESEWAGE!

Скриншот с названием фильма

MediaInfo

C:\/*spam*/\Бытие (Entity) 2012, Великобритания, ужасы, триллер, драма, WEB-DL 720p GORESEWAGE.mkv
General
Unique ID : 213967336855798437560493121511457915221 (0xA0F89C30A2FF5DBAAD6ECDDAD16D8155)
Complete name : C:\/*spam*/\Бытие (Entity) 2012, Великобритания, ужасы, триллер, драма, WEB-DL 720p GORESEWAGE.mkv
Format : Matroska
Format version : Version 4 / Version 2
File size : 2.71 GiB
Duration : 1h 27mn
Overall bit rate : 4 430 Kbps
Movie name : GORESEWAGE
Encoded date : UTC 2013-04-21 16:45:44
Writing application : mkvmerge v6.0.0 ('Coming Up For Air') built on Jan 20 2013 09:52:00
Writing library : libebml v1.3.0 + libmatroska v1.4.0
Video #1
ID : 1
Format : AVC
Format/Info : Advanced Video Codec
Format profile : [email protected]
Format settings, CABAC : No
Format settings, ReFrames : 2 frames
Codec ID : V_MPEG4/ISO/AVC
Duration : 1h 27mn
Bit rate : 3 957 Kbps
Width : 1 280 pixels
Height : 720 pixels
Display aspect ratio : 16:9
Frame rate mode : Constant
Frame rate : 24.000 fps
Color space : YUV
Chroma subsampling : 4:2:0
Bit depth : 8 bits
Scan type : Progressive
Bits/(Pixel*Frame) : 0.179
Stream size : 2.42 GiB (89%)
Title : GORESEWAGE
Language : English
Default : Yes
Forced : No
Color primaries : BT.709
Transfer characteristics : BT.709
Matrix coefficients : BT.709
Audio #2
ID : 2
Format : AC-3
Format/Info : Audio Coding 3
Mode extension : CM (complete main)
Format settings, Endianness : Big
Codec ID : A_AC3
Duration : 1h 27mn
Bit rate mode : Constant
Bit rate : 192 Kbps
Channel(s) : 2 channels
Channel positions : Front: L R
Sampling rate : 48.0 KHz
Bit depth : 16 bits
Compression mode : Lossy
Stream size : 120 MiB (4%)
Title : Любительский (двухголосый закадровый) den904 & DeadSno
Language : Russian
Default : Yes
Forced : No
Audio #3
ID : 3
Format : AC-3
Format/Info : Audio Coding 3
Mode extension : CM (complete main)
Format settings, Endianness : Big
Codec ID : A_AC3
Duration : 1h 27mn
Bit rate mode : Constant
Bit rate : 192 Kbps
Channel(s) : 2 channels
Channel positions : Front: L R
Sampling rate : 48.0 KHz
Bit depth : 16 bits
Compression mode : Lossy
Stream size : 120 MiB (4%)
Title : Оригинал
Language : English
Default : No
Forced : No
Text #4
ID : 4
Format : UTF-8
Codec ID : S_TEXT/UTF8
Codec ID/Info : UTF-8 Plain Text
Title : Full
Language : English
Default : No
Forced : No
Menu
00:00:00.000 : en:1
00:09:00.000 : en:2
00:16:46.000 : en:3
00:25:53.000 : en:4
00:33:02.000 : en:5
00:42:01.000 : en:6
00:48:42.000 : en:7
00:53:56.000 : en:8
01:02:28.000 : en:9
01:10:47.000 : en:10
01:18:29.000 : en:11
01:22:58.000 : en:12

Полноразмерные постеры

Other forum [Profile] [PM]
Display posts from previous:    
Reply to topic

The time now is: Today 11:07

All times are GMT + 3 Hours



You cannot post new topics in this forum
You cannot reply to topics in this forum
You cannot edit your posts in this forum
You cannot delete your posts in this forum
You cannot vote in polls in this forum
You cannot attach files in this forum
You cannot download files in this forum