Today is a free download without charge Download

Синистер / Sinister (Скотт Дерриксон / Scott Derrickson) [2012, США, ужасы, детектив, BDRip 720p] Dub + Sub Rus, Eng + Original Eng

Reply to topic
 
Author
Message

Omen ®

Longevity: 8 years 5 months

Posts: 181087

Торрент-статистика

Post 21-Apr-2013 18:03

[Quote]

-Синистер / Sinister- Год выпуска: 2012
Страна: США
Жанр: ужасы, триллер, детектив
Продолжительность: 01:49:45-Перевод: Профессиональный (дублированный)
Оригинальная аудиодорожка: Английская
Субтитры: Русские, английские (Full, SDH)-Студия: Alliance Films, Automatik Entertainment, Blumhouse Productions
Режиссёр: Скотт Дерриксон / Scott Derrickson
В ролях: Итан Хоук / Ethan Hawke (Ellison Oswalt), Джульет Райлэнс / Juliet Rylance (Tracy), Фред Долтон Томпсон / Fred Dalton Thompson (Sheriff), Джеймс Рэнсон / James Ransone (Deputy), Майкл Холл Д’Аддарио / Michael Hall D'Addario (Trevor), Клер Фоли / Clare Foley (Ashley), Роб Райли / Rob Riley (E.M.T.), Тэвис Смайли / Tavis Smiley (Anchor), Джанет Заппала / Janet Zappala (Reporter), Виктория Ли / Victoria Leigh (Stephanie), Камерон Окасио / Cameron Ocasio (BBQ Boy), Этан Хаберфилд / Ethan Haberfield (Pool Party Boy) и др.-Описание: Вместе с семьёй автор детективов поселяется в небольшом городке, в доме, где почти год назад развернулась леденящая душу трагедия - были убиты все жильцы. Писатель случайно находит видеозаписи, которые являются ключом к тайне преступления. Но ничто не даётся даром: в доме начинают происходить жуткие вещи и теперь под угрозой жизнь его близких. Они столкнулись с чем-то, от чего нет спасения…-
  • Кинопоиск
  • IMDB
  • Blu-ray.com
  • Сэмпл 1: 00:03:40 - 00:04:50-Качество: BDRip 720p
    Контейнер: MKV
    Видео: MPEG-4 AVC Video / 5100 kbps / 1280x534p / 23,976 fps / 16:9 / High Profile 4.1
    Аудио 1: Russian: 48 kHz, AC3, 3/2 (L,C,R,l,r) + LFE ch, ~448.00 kbps avg |Дубляж, R5|
    Аудио 2: English: 48 kHz, DTS, 3/2 (L,C,R,l,r) + LFE ch, ~768.00 kbps |Original|
    Навигация по главам: да

Видеоряд от ThD

RLS iNFO:
RELEASE NAME..: Sinister 2012 720p BluRay DD 5.1 x264-ThDRELEASE SIZE..: 4.5 GbRUNTIME.......: 1:49:45VIDEO CODEC...: x264, CRF , L4.1FRAMERATE.....: 23.976 fpsBITRATE.......: ~5100 KbpsRESOLUTION....: 1280x534AUDIO.........: English AC3 5.1 @ 640 KbpsSUBTITLES.....: English, English SDHCHAPTERS......: yes / unnamed /SOURCE........: US BDiMDB..........: http://www.imdb.com/title/tt1922777
x264 [info]: frame I:1158 Avg QP:12.83 size: 97102x264 [info]: frame P:31175 Avg QP:14.96 size: 46201x264 [info]: frame B:125396 Avg QP:16.66 size: 21741x264 [info]: consecutive B-frames: 1.8% 2.2% 6.4% 9.5% 16.0% 44.4% 9.9% 2.7% 4.2% 2.9%
Source______________________________________________Encode



MI

Код:
General
Complete name                    : F:\  -= Фильмы =-\Синистер (2012. Sinister).mkv
Format                           : Matroska
File size                        : 4.92 GiB
Duration                         : 1h 49mn
Overall bit rate                 : 6 422 Kbps
Movie name                       : Release for RuTracker
Encoded date                     : UTC 2013-04-21 15:09:14
Writing application              : mkvmerge v4.9.1 ('Ich will') сборка от Jul 11 2011 23:53:15
Writing library                  : libebml v1.2.1 + libmatroska v1.1.1
Video
ID                               : 1
Format                           : AVC
Format/Info                      : Advanced Video Codec
Format profile                   : [email protected]
Format settings, CABAC           : Yes
Format settings, ReFrames        : 12 frames
Muxing mode                      : Container [email protected]
Codec ID                         : V_MPEG4/ISO/AVC
Duration                         : 1h 49mn
Bit rate                         : 5 092 Kbps
Width                            : 1 280 pixels
Height                           : 534 pixels
Display aspect ratio             : 2.35:1
Frame rate                       : 23.976 fps
Color space                      : YUV
Chroma subsampling               : 4:2:0
Bit depth                        : 8 bits
Scan type                        : Progressive
Bits/(Pixel*Frame)               : 0.311
Stream size                      : 3.90 GiB (79%)
Title                            : Sinister.2012.720p.BluRay.DD5.1.x264-ThD
Writing library                  : x264 core 129 r2245 bc13772
Encoding settings                : cabac=1 / ref=12 / deblock=1:-3:-3 / analyse=0x3:0x133 / me=umh / subme=11 / psy=1 / psy_rd=1.05:0.00 / mixed_ref=1 / me_range=64 / chroma_me=1 / trellis=2 / 8x8dct=1 / cqm=0 / deadzone=21,11 / fast_pskip=0 / chroma_qp_offset=-2 / threads=18 / lookahead_threads=3 / sliced_threads=0 / nr=0 / decimate=0 / interlaced=0 / bluray_compat=0 / constrained_intra=0 / bframes=9 / b_pyramid=2 / b_adapt=2 / b_bias=0 / direct=3 / weightb=1 / open_gop=0 / weightp=2 / keyint=250 / keyint_min=23 / scenecut=40 / intra_refresh=0 / rc=crf / mbtree=0 / crf=16.5 / qcomp=0.90 / qpmin=0 / qpmax=69 / qpstep=4 / ip_ratio=1.40 / pb_ratio=1.25 / aq=2:0.85
Language                         : English
Audio #1
ID                               : 2
Format                           : AC-3
Format/Info                      : Audio Coding 3
Mode extension                   : CM (complete main)
Codec ID                         : A_AC3
Duration                         : 1h 49mn
Bit rate mode                    : Constant
Bit rate                         : 448 Kbps
Channel(s)                       : 6 channels
Channel positions                : Front: L C R, Side: L R, LFE
Sampling rate                    : 48.0 KHz
Bit depth                        : 16 bits
Stream size                      : 351 MiB (7%)
Title                            : Дубляж
Language                         : Russian
Audio #2
ID                               : 3
Format                           : DTS
Format/Info                      : Digital Theater Systems
Codec ID                         : A_DTS
Duration                         : 1h 49mn
Bit rate mode                    : Constant
Bit rate                         : 755 Kbps
Channel(s)                       : 6 channels
Channel positions                : Front: L C R, Side: L R, LFE
Sampling rate                    : 48.0 KHz
Bit depth                        : 24 bits
Stream size                      : 592 MiB (12%)
Language                         : English
Text #1
ID                               : 4
Format                           : UTF-8
Codec ID                         : S_TEXT/UTF8
Codec ID/Info                    : UTF-8 Plain Text
Language                         : Russian
Text #2
ID                               : 5
Format                           : UTF-8
Codec ID                         : S_TEXT/UTF8
Codec ID/Info                    : UTF-8 Plain Text
Language                         : English
Text #3
ID                               : 6
Format                           : UTF-8
Codec ID                         : S_TEXT/UTF8
Codec ID/Info                    : UTF-8 Plain Text
Title                            : SDH
Language                         : English
Menu
00:00:00.000                     : en:00:00:00.000
00:10:47.605                     : en:00:10:47.605
00:19:12.360                     : en:00:19:12.360
00:27:15.217                     : en:00:27:15.217
00:37:05.557                     : en:00:37:05.557
00:46:42.383                     : en:00:46:42.383
00:56:37.144                     : en:00:56:37.144
01:07:20.411                     : en:01:07:20.411
01:17:10.751                     : en:01:17:10.751
01:26:22.803                     : en:01:26:22.803
01:33:41.616                     : en:01:33:41.616
01:43:15.147                     : en:01:43:15.147

Скриншоты


Полноразмерные постеры

Other forum [Profile] [PM]
Display posts from previous:    
Reply to topic

The time now is: Today 03:28

All times are GMT + 3 Hours



You cannot post new topics in this forum
You cannot reply to topics in this forum
You cannot edit your posts in this forum
You cannot delete your posts in this forum
You cannot vote in polls in this forum
You cannot attach files in this forum
You cannot download files in this forum