Today is a free download without charge Download

В доме / Dans la maison (Франсуа Озон / Francois Ozon) [2012, Франция, триллер, мелодрама, драма, BDRip 720p] Dub + Original (French) + Subs (Rus, Eng)

Reply to topic
 
Author
Message

Omen ®

Longevity: 8 years 5 months

Posts: 181087

Торрент-статистика

Post 21-Apr-2013 18:03

[Quote]

В домеDans la maison«Думаешь, за тобой не интересно подсматривать?»- Страна: Франция
Жанр: триллер, мелодрама, драма
Год выпуска: 2012
Продолжительность: 01:44:58-Перевод: Профессиональный (полное дублирование) [Лицензия]
Оригинальная аудиодорожка: французский
Субтитры: русские, английские
Режиссер: Франсуа Озон / Francois Ozon
В ролях: Фабрис Лукини, Эрнст Умоер, Кристин Скотт Томас, Эмманюэль Сенье, Дени Меноше, Бастьен Угетто, Жан-Франсуа Балмер, Иоланда Моро, Катрин Давенье, Винсент Шмитт, Жак Боск, Стефани Кэмпион-Описание: Разочаровавшись в своих учениках, учитель благоволит лишь мальчику, сидящему на последней парте и сильно выделяющемуся на фоне остальных. Этот ребенок имеет склонность к подглядыванию и однажды решает написать рассказ о семье своего одноклассника, за которой имеет возможность систематически наблюдать.-


MPAA: R - Лицам до 17 лет обязательно присутствие взрослого-

Доп. Информация

Сценарий: Хуан Майорга / Juan Mayorga, Франсуа Озон / Francois Ozon
Продюсер: Эрик Альтмайер / Eric Altmeyer, Николас Альтмайер / Nicolas Altmeyer, Клоди Оссар / Claudie Ossard
Оператор: Жером Альмерас / Jerome Almeras
Композитор: Филипп Ромби / Philippe Rombi
Сборы в России: $255 000
Сборы в мире: $11 489 289
Мировая премьера: 10 сентября 2012
Релиз на DVD: 26 февраля 2013, «Парадиз Медиа»

-

Сравнение с исходником

Source - Encode



-

Сравнение

Сравнение с http:///*spam*//forum/viewtopic.php?t=4363741
http://screenshotcomparison.com/comparison/19845
Плюс английские сабы и полная их синхронизация.
-Качество: BDRip 720p
Контейнер: MKV
Видео: AVC; 1280x692 (1.850); 6557 Kbps; 24 fps; 0,308 bpp
Аудио №1: русский / AC3 / 5.1 / 48 kHz / 384 kbps / 16 bit ||
Аудио №2: французский / DTS / 48 kHz / 1509 kbps / 16 bit
Формат субтитров: softsub (SRT)
Навигация по главам: есть-

Media Info

Общее
Уникальный идентификатор : 224640505647338827950315112099933537390 (0xA900300A25F39AB9A800A37392EF446E)
Полное имя : C:\Dans.la.maison.2012.1080p\Dans.la.maison.2012.BDRip.720p.mkv
Формат : Matroska
Версия формата : Version 2
Размер файла : 6,32 Гбайт
Продолжительность : 1 ч. 44 м.
Общий поток : 8623 Кбит/сек
Дата кодирования : UTC 2013-04-20 09:57:56
Программа кодирования : mkvmerge v5.8.0 ('No Sleep / Pillow') built on Sep 2 2012 15:37:04
Библиотека кодирования : libebml v1.2.3 + libmatroska v1.3.0
Видео
Идентификатор : 1
Формат : AVC
Формат/Информация : Advanced Video Codec
Профиль формата : [email protected]
Параметр CABAC формата : Да
Параметр ReFrames формата : 9 кадров
Идентификатор кодека : V_MPEG4/ISO/AVC
Продолжительность : 1 ч. 44 м.
Битрейт : 6558 Кбит/сек
Ширина : 1280 пикселей
Высота : 692 пикселя
Соотношение сторон : 1,85:1
Режим частоты кадров : Постоянный
Частота кадров : 24,000 кадра/сек
Цветовое пространство : YUV
Субдискретизация насыщенности : 4:2:0
Битовая глубина : 8 бит
Тип развёртки : Прогрессивная
Бит/(Пиксели*Кадры) : 0.309
Размер потока : 4,81 Гбайт (76%)
Библиотека кодирования : x264 core 130 r2273 b3065e6
Настройки программы : cabac=1 / ref=9 / deblock=1:-1:-1 / analyse=0x3:0x113 / me=umh / subme=10 / psy=1 / psy_rd=1.00:0.15 / mixed_ref=1 / me_range=48 / chroma_me=1 / trellis=2 / 8x8dct=1 / cqm=0 / deadzone=21,11 / fast_pskip=1 / chroma_qp_offset=-3 / threads=12 / lookahead_threads=3 / sliced_threads=0 / nr=0 / decimate=1 / interlaced=0 / bluray_compat=0 / constrained_intra=0 / bframes=11 / b_pyramid=2 / b_adapt=2 / b_bias=0 / direct=3 / weightb=1 / open_gop=0 / weightp=2 / keyint=250 / keyint_min=24 / scenecut=40 / intra_refresh=0 / rc_lookahead=40 / rc=crf / mbtree=0 / crf=18.5 / qcomp=0.60 / qpmin=10 / qpmax=51 / qpstep=4 / vbv_maxrate=50000 / vbv_bufsize=62500 / crf_max=0.0 / nal_hrd=none / ip_ratio=1.40 / pb_ratio=1.30 / aq=2:1.00
Язык : English
Default : Да
Forced : Нет
Аудио #1
Идентификатор : 2
Формат : AC-3
Формат/Информация : Audio Coding 3
Расширение режима : CM (complete main)
Параметр Endianness формата : Big
Идентификатор кодека : A_AC3
Продолжительность : 1 ч. 44 м.
Вид битрейта : Постоянный
Битрейт : 384 Кбит/сек
Каналы : 6 каналов
Расположение каналов : Front: L C R, Side: L R, LFE
Частота : 48,0 КГц
Битовая глубина : 16 бит
Метод сжатия : С потерями
Размер потока : 288 Мбайт (4%)
Заголовок : Профессиональный (полное дублирование)
Язык : Russian
Default : Да
Forced : Да
Аудио #2
Идентификатор : 3
Формат : DTS
Формат/Информация : Digital Theater Systems
Режим : 16
Параметр Endianness формата : Big
Идентификатор кодека : A_DTS
Продолжительность : 1 ч. 44 м.
Вид битрейта : Постоянный
Битрейт : 1509 Кбит/сек
Каналы : 6 каналов
Расположение каналов : Front: L C R, Side: L R, LFE
Частота : 48,0 КГц
Битовая глубина : 16 бит
Метод сжатия : С потерями
Размер потока : 1,11 Гбайт (17%)
Заголовок : French
Язык : French
Default : Нет
Forced : Нет
Текст #1
Идентификатор : 4
Формат : UTF-8
Идентификатор кодека : S_TEXT/UTF8
Идентификатор кодека/Информация : UTF-8 Plain Text
Язык : Russian
Default : Нет
Forced : Нет
Текст #2
Идентификатор : 5
Формат : UTF-8
Идентификатор кодека : S_TEXT/UTF8
Идентификатор кодека/Информация : UTF-8 Plain Text
Язык : English
Default : Нет
Forced : Нет
Меню
00:00:00.000 : en:00:00:00.000
00:08:51.125 : en:00:08:51.125
00:17:04.708 : en:00:17:04.708
00:26:28.667 : en:00:26:28.667
00:36:10.583 : en:00:36:10.583
00:44:32.708 : en:00:44:32.708
00:53:51.333 : en:00:53:51.333
01:02:20.292 : en:01:02:20.292
01:09:23.958 : en:01:09:23.958
01:18:58.542 : en:01:18:58.542
01:29:21.000 : en:01:29:21.000
01:37:59.917 : en:01:37:59.917

х264

x264 [info]: frame I:914 Avg QP:17.59 size:136371
x264 [info]: frame P:28464 Avg QP:18.94 size: 69777
x264 [info]: frame B:121772 Avg QP:20.79 size: 26159
x264 [info]: consecutive B-frames: 1.0% 1.0% 4.0% 10.4% 15.4% 57.1% 5.1% 0.8% 3.7% 0.8% 0.4% 0.2%
x264 [info]: mb I I16..4: 17.9% 65.2% 16.9%
x264 [info]: mb P I16..4: 2.0% 17.6% 2.2% P16..4: 30.5% 26.8% 15.1% 0.0% 0.0% skip: 5.8%
x264 [info]: mb B I16..4: 0.1% 2.7% 0.2% B16..8: 38.1% 14.2% 5.4% direct: 9.0% skip:30.2% L0:43.8% L1:42.2% BI:14.0%
x264 [info]: 8x8 transform intra:82.9% inter:54.7%
x264 [info]: direct mvs spatial:99.9% temporal:0.1%
x264 [info]: coded y,uvDC,uvAC intra: 93.8% 94.7% 86.9% inter: 38.6% 36.1% 12.4%
x264 [info]: i16 v,h,dc,p: 21% 5% 31% 43%
x264 [info]: i8 v,h,dc,ddl,ddr,vr,hd,vl,hu: 12% 7% 15% 9% 12% 12% 11% 11% 12%
x264 [info]: i4 v,h,dc,ddl,ddr,vr,hd,vl,hu: 35% 6% 5% 7% 11% 11% 9% 8% 8%
x264 [info]: i8c dc,h,v,p: 60% 14% 13% 14%
x264 [info]: Weighted P-Frames: Y:1.6% UV:0.4%
x264 [info]: ref P L0: 37.4% 10.9% 21.9% 6.8% 7.7% 4.3% 5.2% 2.4% 3.1% 0.1% 0.0%
x264 [info]: ref B L0: 70.8% 12.9% 5.9% 3.7% 2.5% 2.4% 1.2% 0.5%
x264 [info]: ref B L1: 94.1% 5.9%
x264 [info]: kb/s:6727.54

Скриншоты

Other forum [Profile] [PM]
Display posts from previous:    
Reply to topic

The time now is: Today 10:08

All times are GMT + 3 Hours



You cannot post new topics in this forum
You cannot reply to topics in this forum
You cannot edit your posts in this forum
You cannot delete your posts in this forum
You cannot vote in polls in this forum
You cannot attach files in this forum
You cannot download files in this forum