Today is a free download without charge Download

За отдельными столиками / Separate Tables (Делберт Манн / Delbert Mann) [1958, США, драма, мелодрама, HDTVRip 720p] VO + Original Eng

Reply to topic
 
Author
Message

Omen ®

Longevity: 8 years 5 months

Posts: 181087

Торрент-статистика

Post 21-Apr-2013 09:50

[Quote]

За отдельными столиками / Separate Tables
Страна: США
Жанр: драма, мелодрама
Год выпуска: 1958
Продолжительность: 01:35:35
Перевод: Одноголосый закадровый
Cубтитры: нет
Оригинальная аудиодорожка: английский-Режиссер: Делберт Манн / Delbert Mann
В ролях: Дебора Керр, Рита Хэйворт, Дэвид Нивен, Уэнди Хиллер, Берт Ланкастер, Глэдис Купер, Кэтлин Несбит, Феликс Эйлмер, Род Тейлор, Одри Далтон
Описание: Драма по одноимённой пьесе Теренса Реттигена.
В ресторане маленького отеля столики рассчитаны только на однуперсону. Заправляет отелем Мисс Пэт Купер дама, старающаяся создать комфортные условия для гостей.
Ее постояльцы своеобразные люди. Их объединяет одно — одиночество. Жизнь отеля идет своим чередом, пока в гостинице не появляетсястареющая светская львица Энн Шэнклэнд…
IMDb || КиноПоиск-Тип релиза: HDTVRip 720p [CtrlHD]
Контейнер: MKV
Видео: H.264/AVC, 1280x720 at 25.000 fps, ~6450 kbps
Аудио#1: Russian: 48 kHz, AC3, 2/0 (L,R) ch, 192.00 kbps |Одноголосый закадровый|
Аудио#2: English: 48 kHz, AC3, 2/0 (L,R) ch, 384.00 kbps
Сэмпл

MediaInfo

Format : Matroska
Format version : Version 2
File size : 4.69 GiB
Duration : 1h 35mn
Overall bit rate : 7 027 Kbps
Encoded date : UTC 2013-04-21 06:06:43
Writing application : mkvmerge v5.0.1 ('Es ist Sommer') built on Nov 6 2011 16:23:40
Writing library : libebml v1.2.2 + libmatroska v1.3.0
Video
ID : 1
Format : AVC
Format/Info : Advanced Video Codec
Format profile : [email protected]
Format settings, CABAC : Yes
Format settings, ReFrames : 9 frames
Codec ID : V_MPEG4/ISO/AVC
Duration : 1h 35mn
Bit rate : 6 450 Kbps
Width : 1 278 pixels
Height : 720 pixels
Display aspect ratio : 16:9
Frame rate : 25.000 fps
Color space : YUV
Chroma subsampling : 4:2:0
Bit depth : 8 bits
Scan type : Progressive
Bits/(Pixel*Frame) : 0.280
Stream size : 4.21 GiB (90%)
Writing library : x264 core 130 r2273 b3065e6
Encoding settings : cabac=1 / ref=9 / deblock=1:-3:-3 / analyse=0x3:0x113 / me=umh / subme=10 / psy=1 / psy_rd=1.05:0.00 / mixed_ref=1 / me_range=24 / chroma_me=1 / trellis=2 / 8x8dct=1 / cqm=0 / deadzone=21,11 / fast_pskip=0 / chroma_qp_offset=-2 / threads=12 / lookahead_threads=1 / sliced_threads=0 / nr=0 / decimate=0 / interlaced=0 / bluray_compat=0 / constrained_intra=0 / bframes=6 / b_pyramid=2 / b_adapt=2 / b_bias=0 / direct=3 / weightb=1 / open_gop=0 / weightp=2 / keyint=250 / keyint_min=25 / scenecut=40 / intra_refresh=0 / rc_lookahead=60 / rc=2pass / mbtree=1 / bitrate=6450 / ratetol=1.0 / qcomp=0.75 / qpmin=0 / qpmax=69 / qpstep=4 / cplxblur=20.0 / qblur=0.5 / ip_ratio=1.20 / aq=1:0.80
Language : English
Default : Yes
Forced : No
Audio #1
ID : 2
Format : AC-3
Format/Info : Audio Coding 3
Mode extension : CM (complete main)
Codec ID : A_AC3
Duration : 1h 35mn
Bit rate mode : Constant
Bit rate : 192 Kbps
Channel(s) : 2 channels
Channel positions : Front: L R
Sampling rate : 48.0 KHz
Bit depth : 16 bits
Compression mode : Lossy
Stream size : 131 MiB (3%)
Language : Russian
Default : Yes
Forced : No
Audio #2
ID : 3
Format : AC-3
Format/Info : Audio Coding 3
Format profile : Dolby Digital
Mode extension : CM (complete main)
Codec ID : A_AC3
Duration : 1h 35mn
Bit rate mode : Constant
Bit rate : 384 Kbps
Channel(s) : 2 channels
Channel positions : Front: L R
Sampling rate : 48.0 KHz
Bit depth : 16 bits
Compression mode : Lossy
Stream size : 263 MiB (5%)
Language : English
Default : No
Forced : No

Скриншоты

Other forum [Profile] [PM]
Display posts from previous:    
Reply to topic

The time now is: Today 01:44

All times are GMT + 3 Hours



You cannot post new topics in this forum
You cannot reply to topics in this forum
You cannot edit your posts in this forum
You cannot delete your posts in this forum
You cannot vote in polls in this forum
You cannot attach files in this forum
You cannot download files in this forum