Сегодня идет свободное скачивание без начисления Download

Пес Барбос и необычный кросс, Самогонщики, «Сто грамм» для храбрости (1961-1976) Blu-ray [1080p]

Ответить на тему
 
Автор
Сообщение

UndegraundMen ®

Стаж: 5 лет 9 месяцев

Сообщений: 25860

Торрент-статистика

Пост 21-Апр-2013 00:01

[Цитировать]

Пес Барбос и необычный кросс, Самогонщики, «Сто грамм» для храбрости (1961-1976) Blu-ray- Оригинальное название: Пес Барбос и необычный кросс, Самогонщики, «Сто грамм» для храбрости
Год выпуска: 1961-1976
Производство: Мосфильм [СССР]
Жанр: Комедия, короткометражка
Перевод: Не требуется [Русский язык]
Субтитры: Отсутствуют
Режиссер: Леонид Гайдай, Борис Бушмелёв, Анатолий Маркелов
Актеры: Евгений Моргунов, Георгий Вицин, Юрий Никулин, Владимир Пицек, Игорь Ясулович, Юрий Кузьменков, Юрий Белов, Рина Зеленая, Владимир Басов, Михаил Светин, Гоги Кавтарадзе, Валентина Титова, Абессалом Лория, Анастасия Георгиевская
Описание фильма:
В сборник вошли три новеллы: «Пес Барбос и необычный кросс» - рассказ о наказании постигшем на рыбалке троицу горе-браконьеров...; «Самогонщики» - Трус, Балбес и Бывалый решают поставить на широкую ногу изготовление самогона - и снова фиаско...; «Сто грамм для храбрости» - три сатирические новеллы антиалкогольной тематики...
Пес Барбос и необычный кросс (1961)

Дата мировой премьеры: 18 октября 1961
Возраст 0+ - для любой зрительской аудитории
Самогонщики (1961)

Дата мировой премьеры: 8 января 1962
Дата выхода DVD релиза: 11 января 2011, «Парадиз Медиа»
Возраст 0+ - для любой зрительской аудитории
«Сто грамм» для храбрости (1976)

Дата мировой премьеры: 23 мая 1977
Возраст 12+ - зрителям, достигшим 12 лет
Продолжительность: 01:44:25 (00:10:28 + 00:18:58 + 01:14:59)
Качество видео: Blu-ray
Видео: MPEG4_AVC, 1920x1080, ~ 19987 kbps, 23.976 fps
Аудио 1: DTS-HD MA 5.1, 3694 kbps [Русский]
Аудио 2: AC3 5.1, 448 kbps [Русский]
Аудио 3: LPCM 1.0, 1152 kbps [Русский]

На диске...

Фильмографии
  • Басов Владимир
  • Богословский Никита
  • Брондуков Борислав
  • Васильева Татьяна
  • Вицин Георгий
  • Гайдай Леонид
  • Гринько Николай
  • Никулин Юрий
  • Моргунов Евгений
  • Ясулович Игорь

BDInfo...

DISC INFO:
Disc Title: Пес.Барбос.и.необычный.кросс-Самогонщики-Сто грамм.для.храбрости.(1961-1976).Blu-ray.[1080p]
Disc Size: 24 537 560 522 bytes
Protection: AACS
BD-Java: No
BDInfo: 0.5.8
PLAYLIST REPORT:
Name: 00002.MPLS
Length: 1:44:25.759 (h:m:s.ms)
Size: 21 899 366 400 bytes
Total Bitrate: 27,96 Mbps
VIDEO:
Codec Bitrate Description
----- ------- -----------
MPEG-4 AVC Video 19987 kbps 1080p / 23,976 fps / 16:9 / High Profile 4.1
AUDIO:
Codec Language Bitrate Description
----- -------- ------- -----------
DTS-HD Master Audio Russian 3694 kbps 5.1 / 48 kHz / 3694 kbps / 24-bit (DTS Core: 5.1 / 48 kHz / 1509 kbps / 24-bit)
Dolby Digital Audio Russian 448 kbps 5.1 / 48 kHz / 448 kbps
LPCM Audio Russian 1152 kbps 1.0 / 48 kHz / 1152 kbps / 24-bit
FILES:
Name Time In Length Size Total Bitrate
---- ------- ------ ---- -------------
00006.M2TS 0:00:00.000 0:10:28.085 2 208 043 008 28 124
00018.M2TS 0:10:28.085 0:18:58.637 4 007 608 320 28 157
00019.M2TS 0:29:26.723 1:14:59.036 15 683 715 072 27 888
CHAPTERS:
Number Time In Length Avg Video Rate Max 1-Sec Rate Max 1-Sec Time Max 5-Sec Rate Max 5-Sec Time Max 10Sec Rate Max 10Sec Time Avg Frame Size Max Frame Size Max Frame Time
------ ------- ------ -------------- -------------- -------------- -------------- -------------- -------------- -------------- -------------- -------------- --------------
1 0:00:00.000 0:10:28.085 20 013 kbps 37 991 kbps 00:01:33.843 30 427 kbps 00:01:32.592 27 180 kbps 00:01:29.964 104 330 bytes 579 929 bytes 00:00:55.013
2 0:10:28.085 0:18:58.637 20 005 kbps 35 184 kbps 00:24:25.630 27 311 kbps 00:12:12.565 26 368 kbps 00:25:52.842 104 298 bytes 424 556 bytes 00:11:40.074
3 0:29:26.723 0:18:31.693 21 154 kbps 34 940 kbps 00:29:47.785 29 918 kbps 00:29:44.157 25 832 kbps 00:35:54.402 110 285 bytes 404 972 bytes 00:30:04.719
4 0:47:58.417 0:17:40.726 18 866 kbps 33 467 kbps 00:53:02.929 28 072 kbps 01:01:23.805 25 766 kbps 01:01:18.424 98 357 bytes 345 594 bytes 00:52:59.718
5 1:05:39.143 0:38:46.615 19 924 kbps 40 331 kbps 01:07:38.220 30 595 kbps 01:07:35.551 26 676 kbps 01:34:24.200 103 878 bytes 365 407 bytes 01:34:09.727

Дополнительно...

Полная реставрация изображения и звука. Исходные киноматериалы подготовлены Госфильмофондом России. Покадровая цифровая реставрация изображения, ремастеринг звука и авторинг проведены объединением «Крупный план».
Скриншоты:
       
       
Время раздачи: 24/7 (до 10 скачавших)
Вне форума [Профиль] [ЛС]
Показать сообщения:    
Ответить на тему

Текущее время: Сегодня 22:37

Часовой пояс: GMT + 3



Вы не можете начинать темы
Вы не можете отвечать на сообщения
Вы не можете редактировать свои сообщения
Вы не можете удалять свои сообщения
Вы не можете голосовать в опросах
Вы не можете прикреплять файлы к сообщениям
Вы не можете скачивать файлы