Today is a free download without charge Download

Пес Барбос и необычный кросс, Самогонщики, «Сто грамм» для храбрости (1961-1976) BDRemux [1080p]

Reply to topic
 
Author
Message

UndegraundMen ®

Longevity: 6 years 2 months

Posts: 25150

Торрент-статистика

Post 21-Apr-2013 00:01

[Quote]

Пес Барбос и необычный кросс, Самогонщики, «Сто грамм» для храбрости (1961-1976) BDRemux- Оригинальное название: Пес Барбос и необычный кросс, Самогонщики, «Сто грамм» для храбрости
Год выпуска: 1961-1976
Производство: Мосфильм [СССР]
Жанр: Комедия, короткометражка
Перевод: Не требуется [Русский язык]
Субтитры: Отсутствуют
Режиссер: Леонид Гайдай, Борис Бушмелёв, Анатолий Маркелов
Актеры: Евгений Моргунов, Георгий Вицин, Юрий Никулин, Владимир Пицек, Игорь Ясулович, Юрий Кузьменков, Юрий Белов, Рина Зеленая, Владимир Басов, Михаил Светин, Гоги Кавтарадзе, Валентина Титова, Абессалом Лория, Анастасия Георгиевская
Описание фильма:
В сборник вошли три новеллы: «Пес Барбос и необычный кросс» - рассказ о наказании постигшем на рыбалке троицу горе-браконьеров...; «Самогонщики» - Трус, Балбес и Бывалый решают поставить на широкую ногу изготовление самогона - и снова фиаско...; «Сто грамм для храбрости» - три сатирические новеллы антиалкогольной тематики...
Пес Барбос и необычный кросс (1961)

Дата мировой премьеры: 18 октября 1961
Возраст 0+ - для любой зрительской аудитории
Самогонщики (1961)

Дата мировой премьеры: 8 января 1962
Дата выхода DVD релиза: 11 января 2011, «Парадиз Медиа»
Возраст 0+ - для любой зрительской аудитории
«Сто грамм» для храбрости (1976)

Дата мировой премьеры: 23 мая 1977
Возраст 12+ - зрителям, достигшим 12 лет
Продолжительность: 01:44:25 (00:10:28 + 00:18:58 + 01:14:59)
Качество видео: BDRemux [Lelya_K]
Видео: MPEG4_AVC/H.264, 1920x1080, ~ 19987 kbps, 23.976 fps
Аудио 1: DTS-HD MA 5.1, 3694 kbps [Русский]
Аудио 2: AC3 5.1, 448 kbps [Русский]

MediaInfo...

Пес Барбос и необычный кросс (1961)

Полное имя : D:\Пес.Барбос.и.необычный.кросс.(1961).BDRemux.mkv
Формат : Matroska
Версия формата : Version 2
Размер файла : 1,78 Гбайт
Продолжительность : 10 м.
Режим общего битрейта : Переменный
Общий поток : 24,3 Мбит/сек
Название фильма : Lelya_K for /*spam*/
Дата кодирования : UTC 2013-04-20 02:59:32
Программа кодирования : mkvmerge v5.7.0 ('The Whirlwind') built on Aug 7 2012 14:11:40
Библиотека кодирования : libebml v1.2.3 + libmatroska v1.3.0
Видео
Идентификатор : 1
Формат : AVC
Формат/Информация : Advanced Video Codec
Профиль формата : [url=mailto:[email protected]][email protected][/url]
Параметр CABAC формата : Да
Параметр ReFrames формата : 4 кадра
Идентификатор кодека : V_MPEG4/ISO/AVC
Продолжительность : 10 м.
Вид битрейта : Переменный
Битрейт : 21,8 Мбит/сек
Максимальный битрейт : 25,0 Мбит/сек
Ширина : 1920 пикселей
Высота : 1080 пикселей
Соотношение сторон : 16:9
Режим частоты кадров : Постоянный
Частота кадров : 23,976 кадра/сек
Стандарт вещания : NTSC
Цветовое пространство : YUV
Субдискретизация насыщенности : 4:2:0
Битовая глубина : 8 бит
Тип развёртки : Прогрессивная
Бит/(Пиксели*Кадры) : 0.438
Размер потока : 1,59 Гбайт (90%)
Заголовок : Пес.Барбос.и.необычный.кросс.(1961).BDRemux
Язык : Russian
Default : Да
Forced : Нет
Основные цвета : BT.709
Характеристики трансфера : BT.709
Коэффициенты матрицы : BT.709
Аудио #1
Идентификатор : 2
Формат : DTS
Формат/Информация : Digital Theater Systems
Профиль формата : MA / Core
Идентификатор кодека : A_DTS
Продолжительность : 10 м.
Вид битрейта : Переменный
Битрейт : 1561 Кбит/сек / 1510 Кбит/сек
Каналы : 6 каналов
Расположение каналов : Front: L C R, Side: L R, LFE
Частота : 48,0 КГц
Битовая глубина : 24 бит
Метод сжатия : Без потерь / Lossy
Заголовок : DTS-HD MA 5.1 / 3694 kbps
Язык : Russian
Default : Да
Forced : Нет
Аудио #2
Идентификатор : 3
Формат : AC-3
Формат/Информация : Audio Coding 3
Расширение режима : CM (complete main)
Параметр Endianness формата : Big
Идентификатор кодека : A_AC3
Продолжительность : 10 м.
Вид битрейта : Постоянный
Битрейт : 448 Кбит/сек
Каналы : 6 каналов
Расположение каналов : Front: L C R, Side: L R, LFE
Частота : 48,0 КГц
Битовая глубина : 16 бит
Метод сжатия : С потерями
Размер потока : 33,5 Мбайт (2%)
Заголовок : AC3 5.1 / 448 kbps
Язык : Russian
Default : Нет
Forced : Нет

Самогонщики (1961)

Полное имя : D:\Самогонщики.(1961).BDRemux.mkv
Формат : Matroska
Версия формата : Version 2
Размер файла : 3,22 Гбайт
Продолжительность : 18 м.
Режим общего битрейта : Переменный
Общий поток : 24,3 Мбит/сек
Название фильма : Lelya_K for /*spam*/
Дата кодирования : UTC 2013-04-20 02:56:34
Программа кодирования : mkvmerge v5.7.0 ('The Whirlwind') built on Aug 7 2012 14:11:40
Библиотека кодирования : libebml v1.2.3 + libmatroska v1.3.0
Видео
Идентификатор : 1
Формат : AVC
Формат/Информация : Advanced Video Codec
Профиль формата : [url=mailto:[email protected]][email protected][/url]
Параметр CABAC формата : Да
Параметр ReFrames формата : 4 кадра
Идентификатор кодека : V_MPEG4/ISO/AVC
Продолжительность : 18 м.
Вид битрейта : Переменный
Битрейт : 21,8 Мбит/сек
Максимальный битрейт : 25,0 Мбит/сек
Ширина : 1920 пикселей
Высота : 1080 пикселей
Соотношение сторон : 16:9
Режим частоты кадров : Постоянный
Частота кадров : 23,976 кадра/сек
Стандарт вещания : NTSC
Цветовое пространство : YUV
Субдискретизация насыщенности : 4:2:0
Битовая глубина : 8 бит
Тип развёртки : Прогрессивная
Бит/(Пиксели*Кадры) : 0.439
Размер потока : 2,89 Гбайт (90%)
Заголовок : Самогонщики.(1961).BDRemux
Язык : Russian
Default : Да
Forced : Нет
Основные цвета : BT.709
Характеристики трансфера : BT.709
Коэффициенты матрицы : BT.709
Аудио #1
Идентификатор : 2
Формат : DTS
Формат/Информация : Digital Theater Systems
Профиль формата : MA / Core
Идентификатор кодека : A_DTS
Продолжительность : 18 м.
Вид битрейта : Переменный
Битрейт : 1561 Кбит/сек / 1510 Кбит/сек
Каналы : 6 каналов
Расположение каналов : Front: L C R, Side: L R, LFE
Частота : 48,0 КГц
Битовая глубина : 24 бит
Метод сжатия : Без потерь / Lossy
Заголовок : DTS-HD MA 5.1 / 3694 kbps
Язык : Russian
Default : Да
Forced : Нет
Аудио #2
Идентификатор : 3
Формат : AC-3
Формат/Информация : Audio Coding 3
Расширение режима : CM (complete main)
Параметр Endianness формата : Big
Идентификатор кодека : A_AC3
Продолжительность : 18 м.
Вид битрейта : Постоянный
Битрейт : 448 Кбит/сек
Каналы : 6 каналов
Расположение каналов : Front: L C R, Side: L R, LFE
Частота : 48,0 КГц
Битовая глубина : 16 бит
Метод сжатия : С потерями
Размер потока : 60,8 Мбайт (2%)
Заголовок : AC3 5.1 / 448 kbps
Язык : Russian
Default : Нет
Forced : Нет

«Сто грамм» для храбрости (1976)

Полное имя : D:\Сто.грамм.для.храбрости.(1976).BDRemux.mkv
Формат : Matroska
Версия формата : Version 2
Размер файла : 12,6 Гбайт
Продолжительность : 1 ч. 14 м.
Режим общего битрейта : Переменный
Общий поток : 24,1 Мбит/сек
Название фильма : Lelya_K for /*spam*/
Дата кодирования : UTC 2013-04-20 03:27:30
Программа кодирования : mkvmerge v5.7.0 ('The Whirlwind') built on Aug 7 2012 14:11:40
Библиотека кодирования : libebml v1.2.3 + libmatroska v1.3.0
Видео
Идентификатор : 1
Формат : AVC
Формат/Информация : Advanced Video Codec
Профиль формата : [url=mailto:[email protected]][email protected][/url]
Параметр CABAC формата : Да
Параметр ReFrames формата : 4 кадра
Идентификатор кодека : V_MPEG4/ISO/AVC
Продолжительность : 1 ч. 14 м.
Вид битрейта : Переменный
Битрейт : 21,6 Мбит/сек
Максимальный битрейт : 25,0 Мбит/сек
Ширина : 1920 пикселей
Высота : 1080 пикселей
Соотношение сторон : 16:9
Режим частоты кадров : Постоянный
Частота кадров : 23,976 кадра/сек
Стандарт вещания : NTSC
Цветовое пространство : YUV
Субдискретизация насыщенности : 4:2:0
Битовая глубина : 8 бит
Тип развёртки : Прогрессивная
Бит/(Пиксели*Кадры) : 0.434
Размер потока : 11,3 Гбайт (90%)
Заголовок : Сто.грамм.для.храбрости.(1976).BDRemux
Язык : Russian
Default : Да
Forced : Нет
Основные цвета : BT.709
Характеристики трансфера : BT.709
Коэффициенты матрицы : BT.709
Аудио #1
Идентификатор : 2
Формат : DTS
Формат/Информация : Digital Theater Systems
Профиль формата : MA / Core
Идентификатор кодека : A_DTS
Продолжительность : 1 ч. 14 м.
Вид битрейта : Переменный
Битрейт : 1561 Кбит/сек / 1510 Кбит/сек
Каналы : 6 каналов
Расположение каналов : Front: L C R, Side: L R, LFE
Частота : 48,0 КГц
Битовая глубина : 24 бит
Метод сжатия : Без потерь / Lossy
Заголовок : DTS-HD MA 5.1 / 3694 kbps
Язык : Russian
Default : Да
Forced : Нет
Аудио #2
Идентификатор : 3
Формат : AC-3
Формат/Информация : Audio Coding 3
Расширение режима : CM (complete main)
Параметр Endianness формата : Big
Идентификатор кодека : A_AC3
Продолжительность : 1 ч. 14 м.
Вид битрейта : Постоянный
Битрейт : 448 Кбит/сек
Каналы : 6 каналов
Расположение каналов : Front: L C R, Side: L R, LFE
Частота : 48,0 КГц
Битовая глубина : 16 бит
Метод сжатия : С потерями
Размер потока : 240 Мбайт (2%)
Заголовок : AC3 5.1 / 448 kbps
Язык : Russian
Default : Нет
Forced : Нет
Меню
00:00:00.000 : ru:Chapter 1
00:18:31.735 : ru:Chapter 2
00:36:12.461 : ru:Chapter 3

Дополнительно...

Полная реставрация изображения и звука. Исходные киноматериалы подготовлены Госфильмофондом России. Покадровая цифровая реставрация изображения, ремастеринг звука и авторинг проведены объединением «Крупный план».
Скриншоты:
       
       
Время раздачи: 24/7 (до 10 скачавших)
Other forum [Profile] [PM]
Display posts from previous:    
Reply to topic

The time now is: Today 13:31

All times are GMT + 3 Hours



You cannot post new topics in this forum
You cannot reply to topics in this forum
You cannot edit your posts in this forum
You cannot delete your posts in this forum
You cannot vote in polls in this forum
You cannot attach files in this forum
You cannot download files in this forum