Today is a free download without charge Download

Дверь в стене (Борис Акулиничев) [1990, короткометражный анимационный фильм, WEBRip]

Reply to topic
 
Author
Message

Omen ®

Longevity: 7 years 11 months

Posts: 181087

Торрент-статистика

Post 20-Apr-2013 21:35

[Quote]

Дверь в стене Год выпуска: 1990
Страна: СССР Союзмультфильм
Жанр: короткометражный анимационный фильм
Продолжительность: 00:19:24
субтитры: отсутствуют- Режиссёр: Борис Акулиничев- Текст читали: Н. Ромашенко, В. Сошальский, Е. Зиньковский, Т. Сергеева- Описание: Мультипликационный фильм для детей по мотивам одноименного рассказа Г.Уэллса. Герой фильма Уоллес пытается примирить мечту о мире красивых душ и человеческих отношений с реальностью преуспевающего буржуа.- Качество: WEBRip
Формат: AVI
Видео кодек: XviD
Аудио кодек: МР3
Видео: 640x480 , (1.33:1), 25 fps, XviD build 65 ~1879 kbps avg, 0.24 bit/pixel
Аудио: 48 kHz, MPEG Layer 3, 2 ch, ~128.00 kbps avg-

MediaInfo

Общее
Полное имя : C:\Дверь в стене\Дверь в стене.1990.WEBRip.avi
Формат : AVI
Формат/Информация : Audio Video Interleave
Размер файла : 280 Мбайт
Продолжительность : 19 м.
Общий поток : 2018 Кбит/сек
Программа кодирования : VirtualDubMod 1.5.10.3 (build 2550/release)
Библиотека кодирования : VirtualDubMod build 2550/release
Видео
Идентификатор : 0
Формат : MPEG-4 Visual
Профиль формата : Advanced [email protected]
Параметр BVOP формата : 2
Параметр QPel формата : Нет
Параметр GMC формата : Без точки перехода
Параметр матрицы формата : Выборочная
Идентификатор кодека : XVID
Идентификатор кодека/Подсказка : XviD
Продолжительность : 19 м.
Битрейт : 1880 Кбит/сек
Ширина : 640 пикселей
Высота : 480 пикселей
Соотношение сторон : 4:3
Частота кадров : 25,000 кадров/сек
Цветовое пространство : YUV
Субдискретизация насыщенности : 4:2:0
Битовая глубина : 8 бит
Тип развёртки : Прогрессивная
Метод сжатия : С потерями
Бит/(Пиксели*Кадры) : 0.245
Размер потока : 261 Мбайт (93%)
Библиотека кодирования : XviD 65
Аудио
Идентификатор : 1
Формат : MPEG Audio
Версия формата : Version 1
Профиль формата : Layer 3
Режим : Joint stereo
Расширение режима : MS Stereo
Идентификатор кодека : 55
Идентификатор кодека/Подсказка : MP3
Продолжительность : 19 м.
Вид битрейта : Постоянный
Битрейт : 128 Кбит/сек
Каналы : 2 канала
Частота : 48,0 КГц
Метод сжатия : С потерями
Размер потока : 17,8 Мбайт (6%)
Выравнивание : Соединение по промежуткам
Продолжительность промежутка : 40 мс. (1,00 видеокадр)
Время предзагрузки промежутка : 504 мс.
Библиотека кодирования : LAME3.99r
Настройки программы : -m j -V 4 -q 3 -lowpass 17 -b 128
Не забываем оставлять комментарии к релизу, мне интересно Ваше мнение!
Other forum [Profile] [PM]
Similar theme
Forum Topic Author Torrent Replies Last Post
./templates/default/images/folder_dl.gif Психология, Тренинг, Саморазвитие Константин Дудин | Память, как у слона. Как быстро прокачать свою память, даже если вы регулярно забываете выключить утюг или закрыть дверь (2019) [PDF] }{@R0N
1 | 0

0 | 1576

1

2019-03-22 23:07
}{@R0N Latest
./templates/default/images/folder_dl.gif Зарубежное кино (HD Video) За призрачной дверью / The Pale Door (А.Б. Кунц) [2020, Ужасы, вестерн, BDRip 720p] Dub (iTunes) + Original + Sub (Eng) Kon912
1 | 0

0 | 412

0

2020-10-21 00:06
Kon912 Latest
Display posts from previous:    
Reply to topic

The time now is: Today 19:42

All times are GMT + 3 Hours



You cannot post new topics in this forum
You cannot reply to topics in this forum
You cannot edit your posts in this forum
You cannot delete your posts in this forum
You cannot vote in polls in this forum
You cannot attach files in this forum
You cannot download files in this forum