Today is a free download without charge Download

Паспорт (Георгий Данелия) [1990, СССР, Франция, Австрия, комедия, BDRip 720p] + Original Rus

Reply to topic
 
Author
Message

Omen ®

Longevity: 8 years 10 months

Posts: 181086

Торрент-статистика

Post 20-Apr-2013 01:15

[Quote]

Паспорт
Страна: СССР, Франция, Австрия
Жанр: комедия
Год выпуска: 1990
Продолжительность: 01:41:45
Cубтитры: нет
Оригинальная аудиодорожка: русский
Режиссер: Георгий Данелия
В ролях: Жерар Дармон, Наталья Гундарева, Олег Янковский, Армен Джигарханян, Евгений Леонов, Леонид Ярмольник, Игорь Кваша, Мамука Кикалейшвили, Шэрон Брэндон, Нуца Когуашвили
Описание: Братья Папашвили, приехав в аэропорт, откуда один из них по соображениям жены должен улететь в Израиль, захотели выпить шампанское. Захотели, а на территории СССР его не продавали, поэтому Мераб пересёк границу по паспорту брата и купил бутылку. А обратно его не пускают. Поэтому в Израиль улетел не хормейстер детского хора Яков, а очень похожий на него брат - таксист Мераб. О его мытарствах-приключениях, выходящих за всякие пределы воображения, и рассказывает эта комедия с грустинкой. Евреи его принимают за агента КГБ, работники советского торгпредства за провокатора, а вернуться домой официально он не может.
Сэмпл
Тип релиза: BDRip 720p
Контейнер: MKV
Видео: MPEG-4 AVC; 1280x720; 6404 Kbps; 23,976 fps
Аудио: Russian: DTS; 1510 kbps 6 ch; 48 kHz; 24-bit

MediaInfo

General
Unique ID : 178608176892525937442052681779185234152 (0x865EAF01A72B20C09DAD1EAEF5C0B0E8)
Complete name : Pasport.1990.x264.BDRip720.mkv
Format : Matroska
Format version : Version 4 / Version 2
File size : 5.62 GiB
Duration : 1h 41mn
Overall bit rate : 7 914 Kbps
Movie name : Pasport.1990.x264.BDRip720 BDA
Encoded date : UTC 2013-04-19 19:10:27
Writing application : mkvmerge v6.0.0 ('Coming Up For Air') built on Jan 20 2013 09:52:00
Writing library : libebml v1.3.0 + libmatroska v1.4.0
Video
ID : 1
Format : AVC
Format/Info : Advanced Video Codec
Format profile : [email protected]
Format settings, CABAC : Yes
Format settings, ReFrames : 8 frames
Codec ID : V_MPEG4/ISO/AVC
Duration : 1h 41mn
Bit rate : 6 404 Kbps
Width : 1 280 pixels
Height : 720 pixels
Display aspect ratio : 16:9
Frame rate mode : Constant
Frame rate : 23.976 fps
Color space : YUV
Chroma subsampling : 4:2:0
Bit depth : 8 bits
Scan type : Progressive
Bits/(Pixel*Frame) : 0.290
Stream size : 4.44 GiB (79%)
Title : Pasport.1990.x264.BDRip720
Writing library : x264 core 130 r2273 b3065e6
Encoding settings : cabac=1 / ref=8 / deblock=1:-3:-3 / analyse=0x3:0x133 / me=umh / subme=10 / psy=1 / psy_rd=1.00:0.00 / mixed_ref=1 / me_range=32 / chroma_me=1 / trellis=2 / 8x8dct=1 / cqm=0 / deadzone=21,11 / fast_pskip=1 / chroma_qp_offset=-2 / threads=12 / lookahead_threads=1 / sliced_threads=0 / nr=0 / decimate=1 / interlaced=0 / bluray_compat=0 / constrained_intra=0 / bframes=3 / b_pyramid=2 / b_adapt=2 / b_bias=0 / direct=3 / weightb=1 / open_gop=0 / weightp=2 / keyint=240 / keyint_min=23 / scenecut=40 / intra_refresh=0 / rc_lookahead=60 / rc=2pass / mbtree=1 / bitrate=6404 / ratetol=1.0 / qcomp=0.60 / qpmin=10 / qpmax=51 / qpstep=4 / cplxblur=20.0 / qblur=0.5 / vbv_maxrate=40000 / vbv_bufsize=40000 / nal_hrd=none / ip_ratio=1.40 / aq=1:1.00
Language : Russian
Default : Yes
Forced : No
Audio
ID : 2
Format : DTS
Format/Info : Digital Theater Systems
Mode : 16
Format settings, Endianness : Big
Codec ID : A_DTS
Duration : 1h 41mn
Bit rate mode : Constant
Bit rate : 1 509 Kbps
Channel(s) : 6 channels
Channel positions : Front: L C R, Side: L R, LFE
Sampling rate : 48.0 KHz
Bit depth : 24 bits
Compression mode : Lossy
Stream size : 1.07 GiB (19%)
Language : Russian
Default : Yes
Forced : No

x264

---[NoImage] x264 [info]: frame I:1013 Avg QP:19.23 size:141356
---[NoImage] x264 [info]: frame P:39695 Avg QP:21.74 size: 57287
---[NoImage] x264 [info]: frame B:105671 Avg QP:23.81 size: 23374
---[NoImage] x264 [info]: consecutive B-frames: 1.2% 2.3% 16.3% 80.2%
---[NoImage] x264 [info]: mb I I16..4: 1.2% 90.9% 8.0%
---[NoImage] x264 [info]: mb P I16..4: 0.2% 6.9% 0.5% P16..4: 41.7% 30.1% 18.1% 0.4% 0.1% skip: 2.1%
---[NoImage] x264 [info]: mb B I16..4: 0.0% 0.8% 0.0% B16..8: 55.3% 17.0% 6.1% direct: 5.5% skip:15.3% L0:41.1% L1:43.4% BI:15.5%
---[NoImage] x264 [info]: 8x8 transform intra:91.5% inter:63.3%
---[NoImage] x264 [info]: direct mvs spatial:27.8% temporal:72.2%
---[NoImage] x264 [info]: coded y,uvDC,uvAC intra: 97.0% 83.3% 46.9% inter: 47.1% 28.5% 2.1%
---[NoImage] x264 [info]: i16 v,h,dc,p: 49% 16% 7% 27%
---[NoImage] x264 [info]: i8 v,h,dc,ddl,ddr,vr,hd,vl,hu: 9% 8% 6% 10% 16% 14% 14% 11% 12%
---[NoImage] x264 [info]: i4 v,h,dc,ddl,ddr,vr,hd,vl,hu: 9% 7% 2% 9% 16% 16% 15% 12% 13%
---[NoImage] x264 [info]: i8c dc,h,v,p: 39% 23% 20% 18%
---[NoImage] x264 [info]: Weighted P-Frames: Y:12.4% UV:2.2%
---[NoImage] x264 [info]: ref P L0: 37.1% 12.4% 19.8% 8.5% 7.6% 5.5% 5.2% 3.0% 0.9% 0.1%
---[NoImage] x264 [info]: ref B L0: 77.2% 12.3% 4.3% 2.4% 1.8% 1.3% 0.7%
---[NoImage] x264 [info]: ref B L1: 95.1% 4.9%
---[NoImage] x264 [info]: kb/s:6403.85
---[NoImage] encoded 146379 frames, 5.53 fps, 6403.85 kb/s

Скриншоты


Other forum [Profile] [PM]
Display posts from previous:    
Reply to topic

The time now is: Today 12:47

All times are GMT + 3 Hours



You cannot post new topics in this forum
You cannot reply to topics in this forum
You cannot edit your posts in this forum
You cannot delete your posts in this forum
You cannot vote in polls in this forum
You cannot attach files in this forum
You cannot download files in this forum