Today is a free download without charge Download

Discovery: Кодекс Мафии: Взгляд Изнутри (1 сезон: 1-3 серию из 5 )/ Discovery: Inside the Gangsters Code (2013) HDTVRip [обновляемая]

Reply to topic
 
Author
Message

UndegraundMen ®

Longevity: 7 years 7 months

Posts: 25145

Торрент-статистика

Post 20-Apr-2013 00:03

[Quote]

Discovery: Кодекс Мафии: Взгляд Изнутри (1 сезон: 1-3 серию из 5 ) / Discovery: Inside the Gangsters Code (2013) HDTVRip[обновляемая] - Русское название: Discovery: Кодекс Мафии: Взгляд Изнутри
Оригинальное название: Discovery: Inside the Gangsters Code
Режиссер / Телекомпания: Великобритания, Discovery Networks International
Год выпуска: 2013
Жанр: Документальный
Описание:
Каждый из нас в этой жизни посмотрел немало кинолент, в которых была показаны жизнь преступных лиц, состоящих в мафиозном синдикате, однако не стоит убеждать себя в том, что показанное в таких картинах является истиной, ведь это отнюдь не так. Перед нами находится новый документальный фильм, основанный на истории одного гангстера в прошлом по имени Лу Ферранте. И вот именно благодаря Лу мы смогли узнать то, как устроен мафиозный мир, со всеми своими законами, неурядицами, интересными моментами и интригами, которые могут попросту захватить дух, когда ты о них узнаешь.
При одном слове « Мафия» на ум приходят только крутые взрослые парни, которые имеют огромное количество денег, отличные дорогие машины, одеваются только как истинные джентльмены, продают и покупают наркотики. В общем, в голову приходят только те ребята, которых все привыкли видеть на экранах своих телевизоров, с которыми постоянно сражается полиция и, которым удаётся отлично провернуть все свои махинации. Зрители считают, что как описано в фильмах про мафию и плохих ребят, всё так же происходит и на самом деле, в настоящей нашей жизни. Но вдруг всё это не правда, режиссёры просто приукрасили жизнь бандитов, что бы зрелищно смотрелось на экранах? Что если в настоящей жизни дела обстоят совсем по-другому?
Сериал «Кодекс Мафии: Взгляд Изнутри» показывает совсем другую жизнь мафии, посмотрев данный сериал первое, что захочется сказать - это то, что такого не может быть. Не может быть, что бы у главного человека, босса, не было отличной машины, денег и прочих дорогих мелочей, он наоборот весь неухоженный, грязный, красные глаза и устрашающий взгляд. Всё что им нужно это быть незамеченным, тихим перед полицией и быть как можно сильнее и жёстче среди своих ребят и противников.
Сериал «Кодекс Мафии: Взгляд Изнутри» является документальным фильмом, всё, что описано и показано в данном сериале является правдой. Все события основаны на реальных событиях, свою историю о структуре мафии, как устроена жизнь, условия хочет рассказать бывший гангстер Лу Ферранте, который до недавнего времени был одним из так называемых «плохих парней».

Описание серий

Эпизод 01 - "18th Street, El Salvador"
Лу присоединяется к гангстерам 18-ой улицы в тюрьме и на воле, чтобы понять, почему их соперничество с МС-13 сеет смерть в Сальвадоре. Может ли кто-нибудь остановить эту войну?
Эпизод 02 - "The Commandos, Phillippines"
Бывший мафиози Лу Ферранте посещает Манилу на Филиппинах и встречается с одной из самых жестоких тюремных банд в мире - Коммандос. Он знакомится с жизнью манильских бандитов.
Эпизод 03 - "The Burqueños, USA"
Лу Ферранте посещает Альбукерке и встречается с одной из самых быстро растущих тюремных банд - Буркеньос. Как они набирают людей в банду, и насколько они угрожают своим соперникам?
Релиз:
Продолжительность: 3 х 00:43:44
Перевод: Одноголосый закадровый, профессиональный
Видеокодек: Xvid
Битрейт видео: ~1800 Кбит/сек
Размер кадра: 704x400
Качество видео: HDTVRip
Аудиокодек: AC3, 2 канала
Битрейт аудио: 192 Кбит/сек
Скриншоты:
       
       

Внимание! Раздача ведётся путём добавления новых серий. Описание процедуры обновления торрента

Внимание! Раздача ведётся путём добавления новых серий; при каждом добавлении создётся новый торрент. Чтобы начать докачку новой серии, пользователям необходимо сделать следующее:
(1) остановить скачивание,
(2) удалить старый торрент у себя из клиента (старые серии удалять не надо),
(3) скачать новый торрент и запустить его у себя в клиенте вместо старого, при этом указать клиенту путь в старую папку куда и должно происходить скачивание новых серий.
Ваш клиент при этом должен произвести хеширование (проверку) старой папки (если не производит сам - помогите ему сделать это), и будет докачивать только те серии которых у вас ещё нет. Старые серии при этом не удаляются, а продолжают раздаваться!
Eсли вы уже удалили старые серии, то предотвратить повторную закачку старых серий можно, отжав галочку в соответсвующих местах при запуске нового торрента. По возможности, желательно не удалять старые серии как можно дольше, чтобы релизёр не только продолжал раздавать старые серии, но и смог сконцентрироваться на новых.

MediaInfo

Общее
Полное имя : H:\ДОКУМЕНТАЛКИ\Inside.The.Gangsters.Code.S01\Inside.The.Gangsters.Code.S01E01.The.18th.Street.avi
Формат : AVI
Формат/Информация : Audio Video Interleave
Размер файла : 626 Мбайт
Продолжительность : 43 м.
Общий поток : 2002 Кбит/сек
Программа кодирования : VirtualDubMod 1.5.10.3 | www.virtualdub-fr.org || (build 2550/release)
Библиотека кодирования : VirtualDubMod build 2550/release
Видео
Идентификатор : 0
Формат : MPEG-4 Visual
Профиль формата : Advanced [email protected]
Параметр BVOP формата : 2
Параметр QPel формата : Нет
Параметр GMC формата : Без точки перехода
Параметр матрицы формата : Default (MPEG)
Идентификатор кодека : XVID
Идентификатор кодека/Подсказка : XviD
Продолжительность : 43 м.
Битрейт : 1800 Кбит/сек
Ширина : 704 пикселя
Высота : 400 пикселей
Соотношение сторон : 16:9
Частота кадров : 25,000 кадров/сек
Цветовое пространство : YUV
Субдискретизация насыщенности : 4:2:0
Битовая глубина : 8 бит
Тип развёртки : Прогрессивная
Метод сжатия : С потерями
Бит/(Пиксели*Кадры) : 0.256
Размер потока : 563 Мбайт (90%)
Библиотека кодирования : XviD 1.2.1 (UTC 2008-12-04)
Аудио
Идентификатор : 1
Формат : AC-3
Формат/Информация : Audio Coding 3
Расширение режима : CM (complete main)
Параметр Endianness формата : Big
Идентификатор кодека : 2000
Продолжительность : 43 м.
Вид битрейта : Постоянный
Битрейт : 192 Кбит/сек
Каналы : 2 канала
Расположение каналов : Front: L R
Частота : 48,0 КГц
Битовая глубина : 16 бит
Метод сжатия : С потерями
Размер потока : 60,1 Мбайт (10%)
Выравнивание : Разделение по промежуткам
Продолжительность промежутка : 40 мс. (1,00 видеокадр)
Время предзагрузки промежутка : 500 мс.
Общее
Полное имя : H:\ДОКУМЕНТАЛКИ\Inside.The.Gangsters.Code.S01\Inside.The.Gangsters.Code.S01E02.The.Commandos.avi
Формат : AVI
Формат/Информация : Audio Video Interleave
Размер файла : 629 Мбайт
Продолжительность : 43 м.
Общий поток : 2002 Кбит/сек
Программа кодирования : VirtualDubMod 1.5.10.3 | www.virtualdub-fr.org || (build 2550/release)
Библиотека кодирования : VirtualDubMod build 2550/release
Видео
Идентификатор : 0
Формат : MPEG-4 Visual
Профиль формата : Advanced [email protected]
Параметр BVOP формата : 2
Параметр QPel формата : Нет
Параметр GMC формата : Без точки перехода
Параметр матрицы формата : Default (MPEG)
Идентификатор кодека : XVID
Идентификатор кодека/Подсказка : XviD
Продолжительность : 43 м.
Битрейт : 1800 Кбит/сек
Ширина : 704 пикселя
Высота : 400 пикселей
Соотношение сторон : 16:9
Частота кадров : 25,000 кадров/сек
Цветовое пространство : YUV
Субдискретизация насыщенности : 4:2:0
Битовая глубина : 8 бит
Тип развёртки : Прогрессивная
Метод сжатия : С потерями
Бит/(Пиксели*Кадры) : 0.256
Размер потока : 566 Мбайт (90%)
Библиотека кодирования : XviD 1.2.1 (UTC 2008-12-04)
Аудио
Идентификатор : 1
Формат : AC-3
Формат/Информация : Audio Coding 3
Расширение режима : CM (complete main)
Параметр Endianness формата : Big
Идентификатор кодека : 2000
Продолжительность : 43 м.
Вид битрейта : Постоянный
Битрейт : 192 Кбит/сек
Каналы : 2 канала
Расположение каналов : Front: L R
Частота : 48,0 КГц
Битовая глубина : 16 бит
Метод сжатия : С потерями
Размер потока : 60,4 Мбайт (10%)
Выравнивание : Разделение по промежуткам
Продолжительность промежутка : 40 мс. (1,00 видеокадр)
Время предзагрузки промежутка : 500 мс.
Общее
Полное имя : H:\ДОКУМЕНТАЛКИ\Inside.The.Gangsters.Code.S01\Inside.The.Gangsters.Code.S01E03.The.Burquenos.avi
Формат : AVI
Формат/Информация : Audio Video Interleave
Размер файла : 630 Мбайт
Продолжительность : 43 м.
Общий поток : 2002 Кбит/сек
Программа кодирования : VirtualDubMod 1.5.10.3 | www.virtualdub-fr.org || (build 2550/release)
Библиотека кодирования : VirtualDubMod build 2550/release
Видео
Идентификатор : 0
Формат : MPEG-4 Visual
Профиль формата : Advanced [email protected]
Параметр BVOP формата : 2
Параметр QPel формата : Нет
Параметр GMC формата : Без точки перехода
Параметр матрицы формата : Default (MPEG)
Идентификатор кодека : XVID
Идентификатор кодека/Подсказка : XviD
Продолжительность : 43 м.
Битрейт : 1800 Кбит/сек
Ширина : 704 пикселя
Высота : 400 пикселей
Соотношение сторон : 16:9
Частота кадров : 25,000 кадров/сек
Цветовое пространство : YUV
Субдискретизация насыщенности : 4:2:0
Битовая глубина : 8 бит
Тип развёртки : Прогрессивная
Метод сжатия : С потерями
Бит/(Пиксели*Кадры) : 0.256
Размер потока : 566 Мбайт (90%)
Библиотека кодирования : XviD 1.2.1 (UTC 2008-12-04)
Аудио
Идентификатор : 1
Формат : AC-3
Формат/Информация : Audio Coding 3
Расширение режима : CM (complete main)
Параметр Endianness формата : Big
Идентификатор кодека : 2000
Продолжительность : 43 м.
Вид битрейта : Постоянный
Битрейт : 192 Кбит/сек
Каналы : 2 канала
Расположение каналов : Front: L R
Частота : 48,0 КГц
Битовая глубина : 16 бит
Метод сжатия : С потерями
Размер потока : 60,4 Мбайт (10%)
Выравнивание : Разделение по промежуткам
Продолжительность промежутка : 40 мс. (1,00 видеокадр)
Время предзагрузки промежутка : 500 мс.
Время раздачи: с 9:00 до 21:00 по МСК
Other forum [Profile] [PM]
Display posts from previous:    
Reply to topic

The time now is: Today 21:39

All times are GMT + 3 Hours



You cannot post new topics in this forum
You cannot reply to topics in this forum
You cannot edit your posts in this forum
You cannot delete your posts in this forum
You cannot vote in polls in this forum
You cannot attach files in this forum
You cannot download files in this forum