Today is a free download without charge Download

Семеро и стерва / Sept hommes et une garce (1967) DVDRip

Reply to topic
 
Author
Message

UndegraundMen ®

Longevity: 8 years 8 months

Posts: 25145

Торрент-статистика

Post 20-Apr-2013 00:03

[Quote]

Семеро и стерва / Sept hommes et une garce (1967) DVDRip- Русское название: Семеро и стерва
Оригинальное название: Sept hommes et une garce
Год выпуска: 1967
Cтрана: Франция, Италия, Румыния
Жанр: Приключения
Описание фильма:
Северная Италия, революционная французская армия ведет боевые действия против австрийцев.
Дочь итальянского графа Карлотта, отказывается бежать от наступающих войск Наполеона Бонапарта, предпочитая завоевывать своим очарованием французских офицеров.
Доржеваль и Дюпра - капитаны наполеоновской армии, в компании пяти солдат и сумасбродной девицы оказываются в расположении австрийских войск.
Отряд с невероятными приключениями, пытается пробиться к своему полку, попадает в плен и другие передряги, что не мешает двум приятелям соперничать из-за Карлотты - красотки и ветренницы...
Режиссер: Бернар Бордери
Актеры: Жан Маре, Марилу Толо, Сидни Чаплин, Филипп Лемэр, Ги Бедос, Флорин Пьерсик, Этторе Манни, Жоэлль Бернар, Эме Якобеску, Серж Айала
Продолжительность: 01:21:15
Перевод: Любительский (одноголосый)[ Kolobroad]
Спасибо за идею перевода и исходные материалы - Larisa547,
за перевод c французского на русский язык субтитрами - Lisok (Lisochek) и
за озвучку русских субтитров - Kolobroad!!!


Дата мировой премьеры: 1 марта 1967
Видеокодек: Xvid
Битрейт видео: ~2090 Kbps
Размер кадра: 672x288
Качество видео: DVDRip
Аудио 1: AC3 48000Hz stereo 192Kbps - русский
Аудио 2: AC3 48000Hz stereo 128Kbps - французский
Битрейт аудио: 192 Kbps
Сэмпл: Ссылка

MI

Общее
Полное имя : D:\Downloads\РАЗДАЧИ\Sept hommes et une garce_1967.avi
Формат : AVI
Формат/Информация : Audio Video Interleave
Размер файла : 1,38 Гбайт
Продолжительность : 1 ч. 21 м.
Общий поток : 2425 Кбит/сек
Программа кодирования : VirtualDubMod 1.5.10.2 (build 2540/release)
Библиотека кодирования : VirtualDubMod build 2540/release
Видео
Идентификатор : 0
Формат : MPEG-4 Visual
Профиль формата : Advanced [email protected]
Параметр BVOP формата : 2
Параметр QPel формата : Нет
Параметр GMC формата : Без точки перехода
Параметр матрицы формата : Default (MPEG)
Идентификатор кодека : XVID
Идентификатор кодека/Подсказка : XviD
Продолжительность : 1 ч. 21 м.
Битрейт : 2091 Кбит/сек
Ширина : 672 пикселя
Высота : 288 пикселей
Соотношение сторон : 2,35:1
Частота кадров : 25,000 кадров/сек
Цветовое пространство : YUV
Субдискретизация насыщенности : 4:2:0
Битовая глубина : 8 бит
Тип развёртки : Прогрессивная
Метод сжатия : С потерями
Бит/(Пиксели*Кадры) : 0.432
Размер потока : 1,19 Гбайт (86%)
Библиотека кодирования : XviD 64
Аудио #1
Идентификатор : 1
Формат : AC-3
Формат/Информация : Audio Coding 3
Расширение режима : CM (complete main)
Параметр Endianness формата : Big
Идентификатор кодека : 2000
Продолжительность : 1 ч. 21 м.
Вид битрейта : Постоянный
Битрейт : 192 Кбит/сек
Каналы : 2 канала
Расположение каналов : Front: L R
Частота : 48,0 КГц
Битовая глубина : 16 бит
Метод сжатия : С потерями
Размер потока : 112 Мбайт (8%)
Выравнивание : Разделение по промежуткам
Продолжительность промежутка : 40 мс. (1,00 видеокадр)
Время предзагрузки промежутка : 500 мс.
Аудио #2
Идентификатор : 2
Формат : AC-3
Формат/Информация : Audio Coding 3
Расширение режима : CM (complete main)
Параметр Endianness формата : Big
Идентификатор кодека : 2000
Продолжительность : 1 ч. 21 м.
Вид битрейта : Постоянный
Битрейт : 128 Кбит/сек
Каналы : 2 канала
Расположение каналов : Front: L R
Частота : 48,0 КГц
Битовая глубина : 16 бит
Метод сжатия : С потерями
Размер потока : 74,4 Мбайт (5%)
Выравнивание : Разделение по промежуткам
Продолжительность промежутка : 40 мс. (1,00 видеокадр)
Время предзагрузки промежутка : 500 мс.
Скриншоты:
                       
Other forum [Profile] [PM]
Display posts from previous:    
Reply to topic

The time now is: Today 21:43

All times are GMT + 3 Hours



You cannot post new topics in this forum
You cannot reply to topics in this forum
You cannot edit your posts in this forum
You cannot delete your posts in this forum
You cannot vote in polls in this forum
You cannot attach files in this forum
You cannot download files in this forum