Today is a free download without charge Download

Капля / The Blob (Ирвин С. Йоворт мл. / Irvin S. Yeaworth Jr., Рассел С. Доутен мл. / Russell S. Doughten Jr.) [1958, США, ужасы, фантастика, BDRip 720p] DVO + Original (Eng) + Sub (Eng)

Reply to topic
 
Author
Message

Omen ®

Longevity: 8 years 5 months

Posts: 181087

Торрент-статистика

Post 19-Apr-2013 21:13

[Quote]

КапляThe Blob«Beware of the Blob! It creeps, and leaps, and glides and slides across the floor.»- Страна: США
Жанр: ужасы, фантастика
Год выпуска: 1958
Продолжительность: 01:23:12-Перевод: Профессиональный (двухголосый)
Оригинальная аудиодорожка: английский
Субтитры: английские
Режиссер: Ирвин С. Йоворт мл. / Irvin S. Yeaworth Jr., Рассел С. Доутен мл. / Russell S. Doughten Jr.
В ролях: Стив МакКуин, Анета Корсаут, Эрл Роу, Олин Ховлин, Олден «Стивен» Чейз, Джон Бенсон, Джордж Кэррас, Ли Пейтон, Эльберт Смит, Хью Грэхэм, Винсент Барби, Одри Меткалф-Описание: Находясь на вершине холма, Стив и Джейн становятся свидетелями падения метеорита. Местный житель обнаруживает на месте падения странную субстанцию, похожую на желе и ведущую себя крайне агрессивно. Стив пытается предупредить людей в ближайшем городке о космической угрозе, но ему никто не верит.-

-

Доп. Информация

Сценарий: Теодор Симонсон / Theodore Simonson, Кей Линэкер / Kay Linaker, Ирвин Х. Миллгейт / Irvine H. Millgate
Продюсер: Джек Х. Харрис / Jack H. Harris, Рассел С. Доутен мл. / Russell S. Doughten Jr.
Оператор: Томас Э. Спэлдинг / Thomas E. Spalding
Композитор: Ральф Кармайкл / Ralph Carmichael
Бюджет: $240 000
Мировая премьера: 12 сентября 1958
-Качество: BDRip 720p
Контейнер: MKV
Видео: AVC, 1280x768 (1.667), 15498 kbps, 23,976 fps, 0,658 bpp
Аудио №1: русский / AC3 / 2.0 / 48 kHz / 192 kbps / 16 bit ||
Аудио №2: английский / DTS / 1 / 48 kHz / 755 kbps / 24 bit
Формат субтитров: softsub (SRT)-

Media Info

General
Unique ID : 210316109789940722332988244628986991303 (0x9E3968CC05F4FCC18B61D8C376E512C7)
Complete name : C:\The Blob\Kaplja.1958.BDRip.720p.mkv
Format : Matroska
Format version : Version 2
File size : 9.75 GiB
Duration : 1h 23mn
Overall bit rate : 16.8 Mbps
Encoded date : UTC 2013-04-18 18:43:20
Writing application : mkvmerge v5.8.0 ('No Sleep / Pillow') built on Sep 2 2012 15:37:04
Writing library : libebml v1.2.3 + libmatroska v1.3.0
Video
ID : 1
Format : AVC
Format/Info : Advanced Video Codec
Format profile : [email protected]
Format settings, CABAC : Yes
Format settings, ReFrames : 9 frames
Codec ID : V_MPEG4/ISO/AVC
Duration : 1h 23mn
Bit rate : 15.5 Mbps
Width : 1 280 pixels
Height : 768 pixels
Display aspect ratio : 1.667
Frame rate : 23.976 fps
Color space : YUV
Chroma subsampling : 4:2:0
Bit depth : 8 bits
Scan type : Progressive
Bits/(Pixel*Frame) : 0.658
Stream size : 9.01 GiB (92%)
Writing library : x264 core 130 r2273 b3065e6
Encoding settings : cabac=1 / ref=9 / deblock=1:-1:-1 / analyse=0x3:0x113 / me=umh / subme=10 / psy=1 / psy_rd=1.00:0.15 / mixed_ref=1 / me_range=48 / chroma_me=1 / trellis=2 / 8x8dct=1 / cqm=0 / deadzone=21,11 / fast_pskip=1 / chroma_qp_offset=-3 / threads=12 / lookahead_threads=3 / sliced_threads=0 / nr=0 / decimate=1 / interlaced=0 / bluray_compat=0 / constrained_intra=0 / bframes=10 / b_pyramid=2 / b_adapt=2 / b_bias=0 / direct=3 / weightb=1 / open_gop=0 / weightp=2 / keyint=250 / keyint_min=24 / scenecut=40 / intra_refresh=0 / rc_lookahead=40 / rc=crf / mbtree=0 / crf=19.0 / qcomp=0.60 / qpmin=10 / qpmax=51 / qpstep=4 / vbv_maxrate=50000 / vbv_bufsize=62500 / crf_max=0.0 / nal_hrd=none / ip_ratio=1.40 / pb_ratio=1.30 / aq=2:1.00
Language : English
Default : Yes
Forced : No
Audio #1
ID : 2
Format : AC-3
Format/Info : Audio Coding 3
Mode extension : CM (complete main)
Codec ID : A_AC3
Duration : 1h 23mn
Bit rate mode : Constant
Bit rate : 192 Kbps
Channel(s) : 2 channels
Channel positions : Front: L R
Sampling rate : 48.0 KHz
Bit depth : 16 bits
Compression mode : Lossy
Stream size : 114 MiB (1%)
Title : закадровый (двухголосый)
Language : Russian
Default : Yes
Forced : Yes
Audio #2
ID : 3
Format : DTS
Format/Info : Digital Theater Systems
Codec ID : A_DTS
Duration : 1h 23mn
Bit rate mode : Constant
Bit rate : 755 Kbps
Channel(s) : 1 channel
Channel positions : Front: C
Sampling rate : 48.0 KHz
Bit depth : 24 bits
Compression mode : Lossy
Stream size : 449 MiB (4%)
Title : English
Language : English
Default : No
Forced : No
Text
ID : 4
Format : UTF-8
Codec ID : S_TEXT/UTF8
Codec ID/Info : UTF-8 Plain Text
Language : English
Default : No
Forced : No

х264

raw [info]: 1280x768p 1:1 @ 24000/1001 fps (cfr)
x264 [info]: using SAR=1/1
x264 [info]: using cpu capabilities: MMX2 SSE2Fast SSSE3 SSE4.2 AVX
x264 [info]: profile High, level 4.2
x264 [info]: frame I:621 Avg QP:18.87 size:181090
x264 [info]: frame P:20757 Avg QP:20.08 size:109899
x264 [info]: frame B:98325 Avg QP:22.34 size: 76048
x264 [info]: consecutive B-frames: 0.7% 0.4% 2.5% 3.6% 7.5% 75.6% 3.7% 0.8% 1.2% 1.9% 2.1%
x264 [info]: mb I I16..4: 26.3% 60.4% 13.3%
x264 [info]: mb P I16..4: 5.0% 21.1% 3.2% P16..4: 27.6% 25.9% 15.6% 0.0% 0.0% skip: 1.5%
x264 [info]: mb B I16..4: 0.3% 7.4% 0.4% B16..8: 40.7% 16.5% 5.9% direct:14.9% skip:13.9% L0:47.6% L1:39.5% BI:12.9%
x264 [info]: 8x8 transform intra:81.8% inter:57.5%
x264 [info]: direct mvs spatial:99.7% temporal:0.3%
x264 [info]: coded y,uvDC,uvAC intra: 98.8% 95.4% 84.1% inter: 63.8% 53.5% 17.9%
x264 [info]: i16 v,h,dc,p: 4% 1% 57% 37%
x264 [info]: i8 v,h,dc,ddl,ddr,vr,hd,vl,hu: 9% 6% 20% 9% 11% 11% 11% 11% 11%
x264 [info]: i4 v,h,dc,ddl,ddr,vr,hd,vl,hu: 7% 5% 11% 11% 14% 14% 13% 13% 13%
x264 [info]: i8c dc,h,v,p: 55% 14% 15% 17%
x264 [info]: Weighted P-Frames: Y:5.6% UV:2.9%
x264 [info]: ref P L0: 29.5% 7.5% 20.2% 9.3% 9.9% 6.8% 7.6% 4.1% 4.8% 0.3% 0.0%
x264 [info]: ref B L0: 56.7% 15.1% 9.5% 6.2% 4.8% 4.5% 2.4% 0.9%
x264 [info]: ref B L1: 89.4% 10.6%
x264 [info]: kb/s:15817.13

Скриншоты

Other forum [Profile] [PM]
Display posts from previous:    
Reply to topic

The time now is: Today 01:03

All times are GMT + 3 Hours



You cannot post new topics in this forum
You cannot reply to topics in this forum
You cannot edit your posts in this forum
You cannot delete your posts in this forum
You cannot vote in polls in this forum
You cannot attach files in this forum
You cannot download files in this forum