Today is a free download without charge Download

Старикам тут не место / No Country for Old Men (Итэн Коэн, Джоэл Коэн) [2007 г., триллер, драма, криминал, детектив, BDRip1080p]

Reply to topic
 
Author
Message

Delia ®

Gender:

Longevity: 9 years 7 months

Posts: 1821

Торрент-статистика

Post 19-Jul-2011 11:32

[Quote]

Старикам тут не место No Country for Old Men Год выпуска: 2007
Страна: США
Жанр: триллер, драма, криминал, детектив
Продолжительность: 02:02:11
Перевод: Профессиональный (полное дублирование)
Режиссер: Итэн Коэн, Джоэл Коэн
Продюссер: Итэн Коэн, Джоэл Коэн, Скотт Рудин
Сценарий: Джоэл Коэн, Итэн Коэн, Кормак МакКарти
Бюджет: $25 000 000
Премьера в мире: 19 мая 2007
В ролях: Томми Ли Джонс, Хавьер Бардем, Джош Бролин, Вуди Харрельсон, Келли Макдоналд, Гаррет Диллахант, Тесс Харпер, Бэрри Корбин, Стивен Рут, Роджер Бойс
Описание: Обычный работяга обнаруживает в пустыне гору трупов, грузовик, набитый героином, и соблазнительную сумму в два миллиона долларов наличными. Он решает взять деньги себе, и результатом становится волна насилия, которую не может остановить вся полиция Западного Техаса.
«Старикам тут не место» (англ. No Country for Old Men) — триллер режиссёров братьев Коэнов по одноимённому роману Кормака Маккарти. Из 8 номинаций на «Оскар» 2008 г. фильм получил 4 награды Киноакадемии в категориях: лучший фильм, лучшая мужская роль второго плана, лучшая режиссура и лучший адаптированный сценарий. Фильм также получил множество одобрительных рецензий от кинокритиков и зрителей, которые считают данный фильм «возвращением» Братьев Коэнов.
Качество: BDRip1080p ( источник Blu-Ray 1080p)
Формат: MKV
Видео кодек: H.264
Аудио кодек: AC3
Видео: 8655 Кбит/сек, 1920*816 (2,35:1), в 23,976 кадр/сек, AVC ([email protected])
Аудио: Russian, 640 Кбит/сек, 48,0 КГц, 16 бит, 6 канала(ов), AC-3
Аудио: English, 320 Кбит/сек, 48,0 КГц, 16 бит, 6 канала(ов), AC-3
Субтитры: Russian, Ukrainian, English - VobSub

MI:

Общее
Уникальный идентификатор : 229555993227686805599725839710553242072 (0xACB2E049DD30A4F6997CFD581D81F9D8)
Полное имя : F:\торрент\No Country for Old Men (2007)BDRip1080p .mkv
Формат : Matroska
Размер файла : 8,21 Гбайт
Продолжительность : 2 ч. 2 м.
Общий поток : 9625 Кбит/сек
Дата кодирования : UTC 2011-07-19 06:44:18
Программа кодирования : mkvmerge v4.9.1 ('Ich will') built on Jul 11 2011 23:53:15
Библиотека кодирования : libebml v1.2.1 + libmatroska v1.1.1
Видео
Идентификатор : 1
Формат : AVC
Формат/Информация : Advanced Video Codec
Профиль формата : [email protected]
Параметр CABAC формата : Да
Параметр ReFrames формата : 5 кадры
Параметры GOP формата : M=1, N=16
Идентификатор кодека : V_MPEG4/ISO/AVC
Продолжительность : 2 ч. 2 м.
Битрейт : 8655 Кбит/сек
Ширина : 1920 пикс.
Высота : 816 пикс.
Соотношение сторон : 2,35:1
Частота кадров : 23,976 кадр/сек
Цветовое пространство : YUV
Подвыборка цветности : 4:2:0
Битовая глубина : 8 бит
Тип развёртки : Прогрессивная
Бит/(Пиксели*Кадры) : 0.230
Размер потока : 7,23 Гбайт (88%)
Библиотека кодирования : x264 core 116 r2019 9cc407d
Настройки программы : cabac=1 / ref=5 / deblock=1:-3:-3 / analyse=0x3:0x113 / me=umh / subme=8 / psy=1 / psy_rd=1.00:0.15 / mixed_ref=1 / me_range=32 / chroma_me=1 / trellis=2 / 8x8dct=1 / cqm=0 / deadzone=21,11 / fast_pskip=0 / chroma_qp_offset=-3 / threads=6 / sliced_threads=0 / nr=0 / decimate=1 / interlaced=0 / bluray_compat=0 / constrained_intra=0 / bframes=4 / b_pyramid=2 / b_adapt=2 / b_bias=0 / direct=3 / weightb=1 / open_gop=0 / weightp=2 / keyint=250 / keyint_min=24 / scenecut=40 / intra_refresh=0 / rc_lookahead=50 / rc=2pass / mbtree=1 / bitrate=8655 / ratetol=1.0 / qcomp=0.60 / qpmin=10 / qpmax=51 / qpstep=4 / cplxblur=20.0 / qblur=0.5 / vbv_maxrate=50000 / vbv_bufsize=60000 / nal_hrd=none / ip_ratio=1.40 / aq=1:1.00
Язык : English
Аудио #1
Идентификатор : 2
Формат : AC-3
Формат/Информация : Audio Coding 3
Расширение режима : CM (complete main)
Идентификатор кодека : A_AC3
Продолжительность : 2 ч. 2 м.
Вид битрейта : Постоянный
Битрейт : 640 Кбит/сек
Канал(ы) : 6 канала(ов)
Расположение каналов : Front: L C R, Side: L R, LFE
Частота : 48,0 КГц
Битовая глубина : 16 бит
Метод сжатия : С потерями
Размер потока : 559 Мбайт (7%)
Язык : Russian
Аудио #2
Идентификатор : 3
Формат : AC-3
Формат/Информация : Audio Coding 3
Расширение режима : CM (complete main)
Идентификатор кодека : A_AC3
Продолжительность : 2 ч. 2 м.
Вид битрейта : Постоянный
Битрейт : 320 Кбит/сек
Канал(ы) : 6 канала(ов)
Расположение каналов : Front: L C R, Side: L R, LFE
Частота : 48,0 КГц
Битовая глубина : 16 бит
Метод сжатия : С потерями
Размер потока : 280 Мбайт (3%)
Язык : English
Текст #1
Идентификатор : 4
Формат : VobSub
Режим смешивания : zlib
Идентификатор кодека : S_VOBSUB
Идентификатор кодека/Информация : The same subtitle format used on DVDs
Язык : Russian
Текст #2
Идентификатор : 5
Формат : VobSub
Режим смешивания : zlib
Идентификатор кодека : S_VOBSUB
Идентификатор кодека/Информация : The same subtitle format used on DVDs
Язык : Ukrainian
Текст #3
Идентификатор : 6
Формат : VobSub
Режим смешивания : zlib
Идентификатор кодека : S_VOBSUB
Идентификатор кодека/Информация : The same subtitle format used on DVDs
Язык : English
Меню
00:00:00.000 : en:00:00:00.000
00:03:44.474 : en:00:03:44.474
00:13:41.904 : en:00:13:41.904
00:20:50.416 : en:00:20:50.416
00:27:52.838 : en:00:27:52.838
00:36:58.383 : en:00:36:58.383
00:41:52.427 : en:00:41:52.427
00:52:17.051 : en:00:52:17.051
01:04:59.312 : en:01:04:59.312
01:13:08.801 : en:01:13:08.801
01:20:05.801 : en:01:20:05.801
01:27:35.876 : en:01:27:35.876
01:34:35.128 : en:01:34:35.128
01:42:21.010 : en:01:42:21.010
01:47:22.645 : en:01:47:22.645
01:56:32.652 : en:01:56:32.652

Скриншоты

             

_________________
Человек – это канат, натянутый между животным и сверхчеловеком, – канат над пропастью.
В человеке ценно то, что он мост, а не цель. Фридрих Ницше


Last edited by Delia on 2011-08-26 17:55; edited 1 time in total
Other forum [Profile] [PM]
Display posts from previous:    
Reply to topic

The time now is: Today 10:55

All times are GMT + 3 Hours



You cannot post new topics in this forum
You cannot reply to topics in this forum
You cannot edit your posts in this forum
You cannot delete your posts in this forum
You cannot vote in polls in this forum
You cannot attach files in this forum
You cannot download files in this forum