Today is a free download without charge Download

Имя / Le prénom / What's in a Name (Александр де Ла Пательер / Alexandre de La Patellière, Мэтью Делапорте / Mathieu Delaporte) [2012, Франция, Бельгия, комедия, BDRip 1080p] VO (Kenum) + Original (Fre) + Subs (Rus, Eng)

Reply to topic
 
Author
Message

Omen ®

Longevity: 8 years 5 months

Posts: 181087

Торрент-статистика

Post 19-Apr-2013 00:41

[Quote]

Имя / Le prénom / What's in a Name Страна: Франция, Бельгия
Студия: Chapter 2 (co-production), Pathé (co-production), ...
Жанр: комедия
Год выпуска: 2012
Продолжительность: 01:49:58
Перевод: Одноголосый закадровый Kenum
Cубтитры: английские, русские (natsster, femme_en_or, Tatianie, tigrenka)
Оригинальная аудиодорожка: французский
Режиссер: Александр де Ла Пательер / Alexandre de La Patellière, Мэтью Делапорте / Mathieu Delaporte
В ролях: Патрик Брюэль, Валери Бенгиги, Шарль Берлинг, Гийом де Тонкедек, Джудит Эль Зейн, Франсуаза Фабиан, Янис Леспере, Мирен Прадье, Алексис Леприз, Жюльетт Леван
Описание:
Винсент торжествует, т. к. будет отцом в первый раз. Приглашенный на ужин к сестре Елизавете и Пьеру, ее мужу, он встречает Клода, своего друга детства. В ожидании прибытия Анны, его молодой жены, он задает множество вопросов о его будущем отцовстве и правильном настрое… Но когда Винсента спросили о имени для будущего ребенка, его ответ погрузил всех в недоумение…
- ||-Тип релиза: BDRip 1080p (рип от HDS)
Контейнер: MKV
Видео: AVC (x264), 1920x816 (2,35:1) at 24,000 fps, 11300 Кbps, 0.301 bpp
Аудио 1: DTS; 1536 Kbps; CBR; 6 ch; 48 khz; 24 bit | VO - Kenum |
Аудио 2: DTS; 1536 Kbps; CBR; 6 ch; 48 khz; 24 bit | Французский |
Аудио 3: AC3; 192 Kbps; CBR; 2 ch; 48 khz | Французский | - Commentary: Александр де Ла Пательер и Мэтью Делапорте
Формат субтитров: softsub (SRT)

Скриншоты || x264 Info || MediaInfo || Notes

Notes:

Цитата:
  • Аудио дорожка №1 и RU субтитры взяты с этой раздачи, thx: лорди74
  • Французские аудио комментарии режиссёров взяты с этой раздачи, thx: leoferre24
  • Поименованые главы взяты с Der.Vorname.GERMAN.2012.PAL.DVDR-OldsMan
  • Английские субтитры взяты с Le.Prenom.2012.FRENCH.DVDR-ITOMA

MediaInfo

Код:
Общее
Уникальный идентификатор                 : 228422332254742402154454966383499909302 (0xABD88A7CB905080A9E30A40408A998B6)
Полное имя                               : Имя.2012.L1.1080p.BluRay.x264-HDS.mkv
Формат                                   : Matroska
Версия формата                           : Version 4 / Version 2
Размер файла                             : 11,1 Гбайт
Продолжительность                        : 1 ч. 49 м.
Общий поток                              : 14,5 Мбит/сек
Название фильма                          : profile.php?mode=viewprofile&u=22488948
Дата кодирования                         : UTC 2013-04-18 11:31:05
Программа кодирования                    : mkvmerge v6.1.0 ('Old Devil') built on Mar  2 2013 14:32:37
Библиотека кодирования                   : libebml v1.3.0 + libmatroska v1.4.0
Видео
Идентификатор                            : 1
Формат                                   : AVC
Формат/Информация                        : Advanced Video Codec
Профиль формата                          : [email protected]
Параметр CABAC формата                   : Да
Параметр ReFrames формата                : 5 кадров
Идентификатор кодека                     : V_MPEG4/ISO/AVC
Продолжительность                        : 1 ч. 49 м.
Битрейт                                  : 11,3 Мбит/сек
Ширина                                   : 1920 пикселей
Высота                                   : 816 пикселей
Соотношение сторон                       : 2,35:1
Режим частоты кадров                     : Постоянный
Частота кадров                           : 24,000 кадра/сек
Цветовое пространство                    : YUV
Субдискретизация насыщенности            : 4:2:0
Битовая глубина                          : 8 бит
Тип развёртки                            : Прогрессивная
Бит/(Пиксели*Кадры)                      : 0.301
Размер потока                            : 8,46 Гбайт (76%)
Библиотека кодирования                   : x264 core 129 r2230 1cffe9f
Настройки программы                      : cabac=1 / ref=5 / deblock=1:-3:-3 / analyse=0x3:0x113 / me=umh / subme=10 / psy=1 / psy_rd=1.20:0.00 / mixed_ref=1 / me_range=32 / chroma_me=1 / trellis=2 / 8x8dct=1 / cqm=0 / deadzone=21,11 / fast_pskip=0 / chroma_qp_offset=-2 / threads=12 / lookahead_threads=2 / sliced_threads=0 / nr=0 / decimate=1 / interlaced=0 / bluray_compat=0 / constrained_intra=0 / bframes=9 / b_pyramid=2 / b_adapt=2 / b_bias=0 / direct=3 / weightb=1 / open_gop=0 / weightp=2 / keyint=250 / keyint_min=23 / scenecut=40 / intra_refresh=0 / rc=2pass / mbtree=0 / bitrate=11300 / ratetol=1.0 / qcomp=0.60 / qpmin=0 / qpmax=69 / qpstep=4 / cplxblur=20.0 / qblur=0.5 / ip_ratio=1.40 / pb_ratio=1.30 / aq=1:1.10
Язык                                     : English
Default                                  : Да
Forced                                   : Нет
Аудио #1
Идентификатор                            : 2
Формат                                   : DTS
Формат/Информация                        : Digital Theater Systems
Режим                                    : 16
Параметр Endianness формата              : Big
Идентификатор кодека                     : A_DTS
Продолжительность                        : 1 ч. 49 м.
Вид битрейта                             : Постоянный
Битрейт                                  : 1510 Кбит/сек
Каналы                                   : 6 каналов
Расположение каналов                     : Front: L C R, Side: L R, LFE
Частота                                  : 48,0 КГц
Битовая глубина                          : 24 бит
Метод сжатия                             : С потерями
Размер потока                            : 1,16 Гбайт (10%)
Заголовок                                : VO [Kenum]
Язык                                     : Russian
Default                                  : Да
Forced                                   : Нет
Аудио #2
Идентификатор                            : 3
Формат                                   : DTS
Формат/Информация                        : Digital Theater Systems
Режим                                    : 16
Параметр Endianness формата              : Big
Идентификатор кодека                     : A_DTS
Продолжительность                        : 1 ч. 49 м.
Вид битрейта                             : Постоянный
Битрейт                                  : 1510 Кбит/сек
Каналы                                   : 6 каналов
Расположение каналов                     : Front: L C R, Side: L R, LFE
Частота                                  : 48,0 КГц
Битовая глубина                          : 24 бит
Метод сжатия                             : С потерями
Размер потока                            : 1,16 Гбайт (10%)
Язык                                     : French
Default                                  : Нет
Forced                                   : Нет
Аудио #3
Идентификатор                            : 4
Формат                                   : AC-3
Формат/Информация                        : Audio Coding 3
Расширение режима                        : CM (complete main)
Параметр Endianness формата              : Big
Идентификатор кодека                     : A_AC3
Продолжительность                        : 1 ч. 49 м.
Вид битрейта                             : Постоянный
Битрейт                                  : 192 Кбит/сек
Каналы                                   : 2 канала
Расположение каналов                     : Front: L R
Частота                                  : 48,0 КГц
Битовая глубина                          : 16 бит
Метод сжатия                             : С потерями
Размер потока                            : 151 Мбайт (1%)
Заголовок                                : commentary by Alexandre de La Patellière and Mathieu Delaporte
Язык                                     : French
Default                                  : Нет
Forced                                   : Нет
Текст #1
Идентификатор                            : 5
Формат                                   : UTF-8
Идентификатор кодека                     : S_TEXT/UTF8
Идентификатор кодека/Информация          : UTF-8 Plain Text
Заголовок                                : [natsster, femme_en_or, Tatianie, tigrenka]
Язык                                     : Russian
Default                                  : Нет
Forced                                   : Нет
Текст #2
Идентификатор                            : 6
Формат                                   : UTF-8
Идентификатор кодека                     : S_TEXT/UTF8
Идентификатор кодека/Информация          : UTF-8 Plain Text
Язык                                     : English
Default                                  : Нет
Forced                                   : Нет
Меню
00:00:00.000                             : de:1:  HOUSE NUMBER 15a
00:05:57.250                             : de:2:  PIERRE
00:14:15.792                             : de:3:  VINCENT
00:24:17.417                             : de:4:  THE NAME
00:31:16.583                             : de:5:  WHAT PEOPLE THINK
00:40:34.875                             : de:6:  BAD HIDING
00:47:28.042                             : de:7:  THE GRIMACE
00:58:56.500                             : de:8:  THE EGOIST
01:09:13.417                             : de:9:  THE PLUM
01:22:04.125                             : de:10:  ALL NATURAL
01:29:54.458                             : de:11:  A WONDERFUL EVENING
01:41:48.375                             : de:12:  A GOOD IDEA

x264 Info

x264 [info]: frame I:1443 Avg QP:17.24 size:240354
x264 [info]: frame P:27938 Avg QP:19.17 size:106138
x264 [info]: frame B:128990 Avg QP:21.81 size: 46552
Other forum [Profile] [PM]
Display posts from previous:    
Reply to topic

The time now is: Today 12:14

All times are GMT + 3 Hours



You cannot post new topics in this forum
You cannot reply to topics in this forum
You cannot edit your posts in this forum
You cannot delete your posts in this forum
You cannot vote in polls in this forum
You cannot attach files in this forum
You cannot download files in this forum