Today is a free download without charge Download

Airbourne - Live It Up (Directed by Bart Borghesi) [2013, Rock, HDCamRip]

Reply to topic
 
Author
Message

Omen ®

Longevity: 8 years 4 months

Posts: 181087

Торрент-статистика

Post 19-Apr-2013 00:41

[Quote]

Airbourne - Live It Up
Жанр: Hard Rock
Продолжительность: 3mn 0s 10ms
Год выпуска: 2013
Описание: Airbourne - Live It Up (Directed by Bart Borghesi)
С режиссерского сайта.

Качество: HDCamRip
Контейнер: MP4
Видео кодек: H.264
Аудио кодек: AAC
Видео: AVC at 2 500 Kbps 1280 x 720 (1.778) at 25.000 fps
Аудио: AAC VBR at 157 Kbps 2 channels, 48.0 KHz

Отчёт MediaInfo / BDInfo

Format : MPEG-4Format profile : Base Media / Version 2Codec ID : mp42File size : 57.0 MiBDuration : 3mn 0sOverall bit rate mode : VariableOverall bit rate : 2 657 KbpsEncoded date : UTC 2013-04-18 02:15:34Tagged date : UTC 2013-04-18 02:15:34
VideoID : 1Format : AVCFormat/Info : Advanced Video CodecFormat profile : [email protected] settings, CABAC : YesFormat settings, ReFrames : 4 framesCodec ID : avc1Codec ID/Info : Advanced Video CodingDuration : 3mn 0sBit rate : 2 500 KbpsWidth : 1 280 pixelsHeight : 720 pixelsDisplay aspect ratio : 16:9Frame rate mode : ConstantFrame rate : 25.000 fpsColor space : YUVChroma subsampling : 4:2:0Bit depth : 8 bitsScan type : ProgressiveBits/(Pixel*Frame) : 0.109Stream size : 53.6 MiB (94%)Writing library : x264 core 129 r2245 bc13772Encoding settings : cabac=1 / ref=3 / deblock=1:0:0 / analyse=0x3:0x113 / me=hex / subme=7 / psy=1 / psy_rd=1.00:0.00 / mixed_ref=1 / me_range=16 / chroma_me=1 / trellis=1 / 8x8dct=1 / cqm=0 / deadzone=21,11 / fast_pskip=1 / chroma_qp_offset=-2 / threads=12 / lookahead_threads=2 / sliced_threads=0 / nr=0 / decimate=1 / interlaced=0 / bluray_compat=0 / constrained_intra=0 / bframes=3 / b_pyramid=2 / b_adapt=1 / b_bias=0 / direct=1 / weightb=1 / open_gop=0 / weightp=2 / keyint=75 / keyint_min=25 / scenecut=40 / intra_refresh=0 / rc_lookahead=40 / rc=2pass / mbtree=1 / bitrate=2500 / ratetol=1.0 / qcomp=0.60 / qpmin=5 / qpmax=69 / qpstep=4 / cplxblur=20.0 / qblur=0.5 / vbv_maxrate=3750 / vbv_bufsize=12500 / nal_hrd=none / ip_ratio=1.40 / aq=1:1.00Encoded date : UTC 2013-04-18 02:15:34Tagged date : UTC 2013-04-18 02:15:34
AudioID : 2Format : AACFormat/Info : Advanced Audio CodecFormat profile : LCCodec ID : 40Duration : 3mn 0sSource duration : 3mn 0sBit rate mode : VariableBit rate : 157 KbpsChannel(s) : 2 channelsChannel positions : Front: L RSampling rate : 48.0 KHzCompression mode : LossyDelay relative to video : 37msStream size : 3.38 MiB (6%)Source stream size : 3.38 MiB (6%)Encoded date : UTC 2013-04-18 02:15:34Tagged date : UTC 2013-04-18 02:15:34

Скриншоты

Other forum [Profile] [PM]
Display posts from previous:    
Reply to topic

The time now is: Today 21:47

All times are GMT + 3 Hours



You cannot post new topics in this forum
You cannot reply to topics in this forum
You cannot edit your posts in this forum
You cannot delete your posts in this forum
You cannot vote in polls in this forum
You cannot attach files in this forum
You cannot download files in this forum