Today is a free download without charge Download

Discovery. Последние дни динозавров / Last Day Of The Dinosaurs (2010) BDRip [H.264/720p]

Reply to topic
 
Author
Message

UndegraundMen ®

Longevity: 7 years 7 months

Posts: 25145

Торрент-статистика

Post 19-Apr-2013 00:00

[Quote]

Discovery. Последние дни динозавров / Last Day Of The Dinosaurs (2010) BDRip [H.264/720p]- Русское название: Discovery. Последние дни динозавров
Оригинальное название: Discovery. Last Day Of The Dinosaurs
Страна: Великобритания, Канада
Режиссер / Телекомпания: Ричард Дэйл / Discovery Channel, Handel Productions
Год выпуска: 2010
Жанр: Документальный
Описание: Почувствуйте себя в гуще событий во время одного из самых драматических событий в истории Земли: гигантские цунами, ужасные метеоритные дожди, невероятной силы землетрясения, извержения вулканов, огненные бури, кислотные дожди и, как результат, - настоящая ядерная зима.
Что произошло на нашей планете много тысяч лет назад, когда ее населяли одни динозавры? Почему они все погибли? Ответы на все вопросы - в этой программе!
Продолжительность: 01:05:30
Перевод: Одноголосый закадровый
Формат файла: MKV
Видеокодек: MPEG-4 AVC/H.264
Битрейт видео: ~ 4 255 Кбит/с
Размер кадра: 1280 x 720
Качество видео: HDTV [720p]
Аудио:
Аудио 1: [Русский] AC3, 2.0, 48 кГц, 192 Кбит/с
Аудио 2: [English] AC3, 5.1, 48 кГц, 384 Кбит/с

MediaInfo:

Общее
Уникальный идентификатор : 195181199804135573448267921209583209869 (0x92D6881F5A93BFB6BE76D0262F200D8D)
Полное имя : A:\Релизы\NG.Last.Day.of.Dinasaurs.(2010).BDRip.720p.mkv
Формат : Matroska
Версия формата : Version 2
Размер файла : 2,21 Гбайт
Продолжительность : 1 ч. 5 м.
Общий поток : 4834 Кбит/сек
Дата кодирования : UTC 2012-11-02 20:20:56
Программа кодирования : mkvmerge v3.2.0 ('Beginnings') built on Feb 12 2010 16:46:17
Библиотека кодирования : libebml v0.7.9 + libmatroska v0.8.1
Видео
Идентификатор : 1
Формат : AVC
Формат/Информация : Advanced Video Codec
Профиль формата : [url=mailto:[email protected]][email protected][/url]
Параметр CABAC формата : Да
Параметр ReFrames формата : 5 кадров
Идентификатор кодека : V_MPEG4/ISO/AVC
Продолжительность : 1 ч. 5 м.
Битрейт : 4255 Кбит/сек
Ширина : 1280 пикселей
Высота : 720 пикселей
Соотношение сторон : 16:9
Частота кадров : 25,000 кадров/сек
Цветовое пространство : YUV
Субдискретизация насыщенности : 4:2:0
Битовая глубина : 8 бит
Тип развёртки : Прогрессивная
Бит/(Пиксели*Кадры) : 0.185
Размер потока : 1,90 Гбайт (86%)
Библиотека кодирования : x264 core 125 r2208 d9d2288
Настройки программы : cabac=1 / ref=5 / deblock=1:0:0 / analyse=0x3:0x133 / me=umh / subme=7 / psy=1 / psy_rd=1.00:0.00 / mixed_ref=1 / me_range=16 / chroma_me=1 / trellis=1 / 8x8dct=1 / cqm=0 / deadzone=21,11 / fast_pskip=0 / chroma_qp_offset=-2 / threads=12 / lookahead_threads=2 / sliced_threads=0 / nr=0 / decimate=1 / interlaced=0 / bluray_compat=0 / constrained_intra=0 / bframes=3 / b_pyramid=2 / b_adapt=2 / b_bias=0 / direct=3 / weightb=1 / open_gop=0 / weightp=2 / keyint=250 / keyint_min=25 / scenecut=40 / intra_refresh=0 / rc_lookahead=50 / rc=2pass / mbtree=1 / bitrate=4255 / ratetol=1.0 / qcomp=0.60 / qpmin=0 / qpmax=69 / qpstep=4 / cplxblur=20.0 / qblur=0.5 / ip_ratio=1.40 / aq=1:1.00
Язык : English
Default : Нет
Forced : Нет
Аудио #1
Идентификатор : 2
Формат : AC-3
Формат/Информация : Audio Coding 3
Расширение режима : CM (complete main)
Параметр Endianness формата : Big
Идентификатор кодека : A_AC3
Продолжительность : 1 ч. 5 м.
Вид битрейта : Постоянный
Битрейт : 192 Кбит/сек
Каналы : 2 канала
Расположение каналов : Front: L R
Частота : 48,0 КГц
Битовая глубина : 16 бит
Метод сжатия : С потерями
Размер потока : 90,0 Мбайт (4%)
Заголовок : poslednie.dni.dinozavrov_by_DaVinci
Язык : Russian
Default : Да
Forced : Да
Аудио #2
Идентификатор : 3
Формат : AC-3
Формат/Информация : Audio Coding 3
Расширение режима : CM (complete main)
Параметр Endianness формата : Big
Идентификатор кодека : A_AC3
Продолжительность : 1 ч. 5 м.
Вид битрейта : Постоянный
Битрейт : 384 Кбит/сек
Каналы : 6 каналов
Расположение каналов : Front: L C R, Side: L R, LFE
Частота : 48,0 КГц
Битовая глубина : 16 бит
Метод сжатия : С потерями
Размер потока : 180 Мбайт (8%)
Заголовок : Last.Day.Of.The.Dinosaurs
Язык : English
Default : Нет
Forced : Нет
Скриншоты:
         
         
Other forum [Profile] [PM]
Display posts from previous:    
Reply to topic

The time now is: Today 16:39

All times are GMT + 3 Hours



You cannot post new topics in this forum
You cannot reply to topics in this forum
You cannot edit your posts in this forum
You cannot delete your posts in this forum
You cannot vote in polls in this forum
You cannot attach files in this forum
You cannot download files in this forum