Today is a free download without charge Download

Цифровая радиостанция / The Numbers Station (Каспер Барфоэд / Kasper Barfoed) [2013, Великобритания, Боевик, триллер, WEB-DL] VO + Sub Eng + Original Eng

Reply to topic
 
Author
Message

Omen ®

Longevity: 8 years 5 months

Posts: 181087

Торрент-статистика

Post 18-Apr-2013 20:06

[Quote]

Цифровая радиостанция / The Numbers Station
Страна: Великобритания
Жанр: Боевик, триллер
Год выпуска: 2013
Продолжительность: 01:28:56
Перевод: Одноголосый закадровый
Cубтитры: английские
Оригинальная аудиодорожка: английский
Режиссер: Каспер Барфоэд / Kasper Barfoed
В ролях: Джон Кьюсак, Малин Акерман, Ханна Мюррэй, Лиам Каннингэм, Люси Гриффитс, Ричард Брэйк, Брайан Дик, Джои Анса, Джо Монтана, Макс Беннет
Описание: Во время последней операции у агента Блэк Опс выявлены психологические проблемы, касающиеся нравственных ценностей. Ему дают возможность отдохнуть, сделать перерыв, дают новое несложное задание - обеспечить безопасность молодой женщины на цифровой станции, на которую та назначена кодировщицей.
Но, после того, как на них устроена засада и они получают телефонный звонок, бороться за свое выживание становится сложнее...
Сэмпл: http://www.multiupload.nl/S2TWAABFKM
Качество видео: WEB-DL
Формат видео: MKV
Видео: AVC, 1280x532 (2,40:1), 23,976 кадра/сек, 3974 Кбит/сек
Аудио: AC3, 48,0 КГц, 6 каналов, 448 Кбит/сек
Аудио 2: AC3, 48,0 КГц, 6 каналов, 384 Кбит/сек

MediaInfo

Формат : Matroska
Версия формата : Version 4 / Version 2
Размер файла : 3,05 Гбайт
Продолжительность : 1 ч. 28 м.
Общий поток : 4903 Кбит/сек
Дата кодирования : UTC 2013-04-17 14:47:46
Программа кодирования : mkvmerge v6.1.0 ('Old Devil') built on Mar 4 2013 09:10:42
Библиотека кодирования : libebml v1.3.0 + libmatroska v1.4.0
Видео
Идентификатор : 1
Формат : AVC
Формат/Информация : Advanced Video Codec
Профиль формата : [email protected]
Параметр CABAC формата : Нет
Параметр ReFrames формата : 2 кадра
Идентификатор кодека : V_MPEG4/ISO/AVC
Продолжительность : 1 ч. 28 м.
Битрейт : 3974 Кбит/сек
Ширина : 1280 пикселей
Высота : 532 пикселя
Соотношение сторон : 2,40:1
Режим частоты кадров : Постоянный
Частота кадров : 23,976 кадра/сек
Цветовое пространство : YUV
Субдискретизация насыщенности : 4:2:0
Битовая глубина : 8 бит
Тип развёртки : Прогрессивная
Бит/(Пиксели*Кадры) : 0.243
Размер потока : 2,47 Гбайт (81%)
Язык : English
Default : Да
Forced : Нет
Основные цвета : BT.709
Характеристики трансфера : BT.709
Коэффициенты матрицы : BT.709
Аудио #1
Идентификатор : 2
Формат : AC-3
Формат/Информация : Audio Coding 3
Расширение режима : CM (complete main)
Параметр Endianness формата : Big
Идентификатор кодека : A_AC3
Продолжительность : 1 ч. 28 м.
Вид битрейта : Постоянный
Битрейт : 448 Кбит/сек
Каналы : 6 каналов
Расположение каналов : Front: L C R, Side: L R, LFE
Частота : 48,0 КГц
Битовая глубина : 16 бит
Метод сжатия : С потерями
Размер потока : 285 Мбайт (9%)
Язык : Russian
Default : Да
Forced : Нет
Аудио #2
Идентификатор : 3
Формат : AC-3
Формат/Информация : Audio Coding 3
Расширение режима : CM (complete main)
Параметр Endianness формата : Big
Идентификатор кодека : A_AC3
Продолжительность : 1 ч. 28 м.
Вид битрейта : Постоянный
Битрейт : 384 Кбит/сек
Каналы : 6 каналов
Расположение каналов : Front: L C R, Side: L R, LFE
Частота : 48,0 КГц
Битовая глубина : 16 бит
Метод сжатия : С потерями
Размер потока : 244 Мбайт (8%)
Заголовок : English AC3 5.1 CH @ 384 kbps
Язык : English
Default : Нет
Forced : Нет
Текст
Идентификатор : 4
Формат : UTF-8
Идентификатор кодека : S_TEXT/UTF8
Идентификатор кодека/Информация : UTF-8 Plain Text
Язык : English
Default : Нет
Forced : Нет
Меню
00:00:00.000 : en:Got It
00:09:00.000 : en:Zeroes and Ones
00:17:33.000 : en:Guilty Conscience
00:26:01.000 : en:Cardiff, Aberdeen, Glasgow
00:33:40.000 : en:Ambushed
00:42:06.000 : en:Try the Other Zones
00:50:39.000 : en:Verify the Code
00:59:20.000 : en:Lock Yourself In
01:06:13.000 : en:One More Broadcast
01:11:15.000 : en:Under Duress
01:18:05.000 : en:She's Compromised
01:23:55.000 : en:Credits

Скриншот c названием фильма

Скриншоты

Other forum [Profile] [PM]
Similar theme
Forum Topic Author Torrent Replies Last Post
./templates/default/images/folder_dl.gif Техническая и научно-популярная литература О.И.Шелухин, Н.Ф.Лукьянцев | Цифровая обработка и передача речи (2000) [PDF] UndegraundMen
1 | 0

0 | 714

1

2013-11-03 11:09
UndegraundMen Latest
./templates/default/images/folder_dl.gif Техническая и научно-популярная литература А.В.Серов | Эфирное цифровое телевидение DVB-T/H (2007) [PDF] Omen
1 | 0

0 | 637

2

2014-08-21 21:09
Omen Latest
./templates/default/images/folder_dl.gif Техническая и научно-популярная литература В.К. Федоров | Стандарты цифрового телевидения первого поколения (2015) [PDF] }{@R0N
1 | 0

0 | 7266

2

2017-05-13 13:16
}{@R0N Latest
./templates/default/images/folder_dl.gif Программы Цифровое ТВ v1.2.8 b19 [Ru] - Просмотр цифровых телеканалов онлайн Clavik
1 | 0

0 | 741

0

2019-08-10 12:44
Clavik Latest
Display posts from previous:    
Reply to topic

The time now is: Today 09:58

All times are GMT + 3 Hours



You cannot post new topics in this forum
You cannot reply to topics in this forum
You cannot edit your posts in this forum
You cannot delete your posts in this forum
You cannot vote in polls in this forum
You cannot attach files in this forum
You cannot download files in this forum