Today is a free download without charge Download

Земля обетованная / Promised Land (Гас Ван Сент / Gus Van Sant) [2012, США, ОАЭ, драма, BDRip 1080p] DVO (ViruseProject) + Original (Eng) + Subs (Rus, Eng)

Reply to topic
 
Author
Message

Omen ®

Longevity: 8 years 5 months

Posts: 181087

Торрент-статистика

Post 18-Apr-2013 20:06

[Quote]

Земля обетованная / Promised Land Страна: США, ОАЭ
Студия: Focus Features, Imagenation Abu Dhabi FZ, ...
Жанр: драма
Год выпуска: 2012
Продолжительность: 01:46:35
Перевод: Любительский (двухголосый закадровый) ViruseProject (Марина Видякина и Дмитрий Кравченко)
Cубтитры: английские, русские (Dr.pro)
Оригинальная аудиодорожка: английский
Режиссер: Гас Ван Сент / Gus Van Sant
В ролях: Мэтт Дэймон, Бенжамин Шилер, Терри Кинни, Карла Бьянко, Джо Койл, Хэл Холбрук, Дороти Сильвер, Фрэнсис МакДорманд, Титус Уэлливер, Лекси Коуэн
Описание:
Корпоративный агент Стив Батлер и его партнер Сью Томасон приезжают в маленький городок, в последние годы переживающий кризис. Местные жители готовы принять предложение компании и дать согласие на бурение скважины на территории их собственности. Все осложняется, когда в дело вмешиваются школьный учитель и представитель профсоюза, с которым у Стива личные счеты.
- || ||-Тип релиза: BDRip 1080p (рип от HDWinG)
Контейнер: MKV
Видео: AVC (x264), 1920x1042 (1,85:1) at 23,976 fps, 13000 Кbps, 0.270 bpp
Аудио 1: DTS; 1536 Kbps; CBR; 6 ch; 48 khz; 24 bit | DVO - ViruseProject |
Аудио 2: DTS; 1536 Kbps; CBR; 6 ch; 48 khz; 24 bit | Английский |
Формат субтитров: softsub (SRT)

Скриншоты || x264 Info || MediaInfo || Notes

Notes:

Цитата:
  • Аудио дорожка №1, главы, субтитры (RU, EN) взяты с этой раздачи, thx: arxivariys

MediaInfo

Код:
Общее
Уникальный идентификатор                 : 230434240046094042731145901334937771070 (0xAD5C053325977D8EBE89231608049C3E)
Полное имя                               : Земля обетованная.2012.DVO.1080p.BluRay.x264-HDWinG.mkv
Формат                                   : Matroska
Версия формата                           : Version 4 / Version 2
Размер файла                             : 12,1 Гбайт
Продолжительность                        : 1 ч. 46 м.
Общий поток                              : 16,3 Мбит/сек
Название фильма                          : profile.php?mode=viewprofile&u=22488948
Дата кодирования                         : UTC 2013-04-17 23:19:05
Программа кодирования                    : mkvmerge v6.1.0 ('Old Devil') built on Mar  2 2013 14:32:37
Библиотека кодирования                   : libebml v1.3.0 + libmatroska v1.4.0
Видео
Идентификатор                            : 1
Формат                                   : AVC
Формат/Информация                        : Advanced Video Codec
Профиль формата                          : [email protected]
Параметр CABAC формата                   : Да
Параметр ReFrames формата                : 7 кадров
Идентификатор кодека                     : V_MPEG4/ISO/AVC
Продолжительность                        : 1 ч. 46 м.
Битрейт                                  : 13,0 Мбит/сек
Ширина                                   : 1920 пикселей
Высота                                   : 1042 пикселя
Соотношение сторон                       : 1,85:1
Режим частоты кадров                     : Постоянный
Частота кадров                           : 23,976 кадра/сек
Цветовое пространство                    : YUV
Субдискретизация насыщенности            : 4:2:0
Битовая глубина                          : 8 бит
Тип развёртки                            : Прогрессивная
Бит/(Пиксели*Кадры)                      : 0.270
Размер потока                            : 9,66 Гбайт (80%)
Библиотека кодирования                   : x264 core 129 r2245 bc13772
Настройки программы                      : cabac=1 / ref=7 / deblock=1:-3:-3 / analyse=0x3:0x113 / me=umh / subme=9 / psy=1 / psy_rd=1.10:0.08 / mixed_ref=1 / me_range=24 / chroma_me=1 / trellis=2 / 8x8dct=1 / cqm=0 / deadzone=21,11 / fast_pskip=0 / chroma_qp_offset=-3 / threads=6 / lookahead_threads=1 / sliced_threads=0 / nr=0 / decimate=0 / interlaced=0 / bluray_compat=0 / constrained_intra=0 / bframes=8 / b_pyramid=2 / b_adapt=2 / b_bias=0 / direct=3 / weightb=1 / open_gop=0 / weightp=2 / keyint=250 / keyint_min=23 / scenecut=40 / intra_refresh=0 / rc_lookahead=50 / rc=crf / mbtree=1 / crf=18.0 / qcomp=0.65 / qpmin=0 / qpmax=69 / qpstep=4 / vbv_maxrate=50000 / vbv_bufsize=62500 / crf_max=0.0 / nal_hrd=none / ip_ratio=1.40 / aq=1:0.80
Язык                                     : English
Default                                  : Да
Forced                                   : Нет
Аудио #1
Идентификатор                            : 2
Формат                                   : DTS
Формат/Информация                        : Digital Theater Systems
Режим                                    : 16
Параметр Endianness формата              : Big
Идентификатор кодека                     : A_DTS
Продолжительность                        : 1 ч. 46 м.
Вид битрейта                             : Постоянный
Битрейт                                  : 1509 Кбит/сек
Каналы                                   : 6 каналов
Расположение каналов                     : Front: L C R, Side: L R, LFE
Частота                                  : 48,0 КГц
Битовая глубина                          : 24 бит
Метод сжатия                             : С потерями
Размер потока                            : 1,12 Гбайт (9%)
Заголовок                                : DVO [ViruseProject]
Язык                                     : Russian
Default                                  : Да
Forced                                   : Нет
Аудио #2
Идентификатор                            : 3
Формат                                   : DTS
Формат/Информация                        : Digital Theater Systems
Режим                                    : 16
Параметр Endianness формата              : Big
Идентификатор кодека                     : A_DTS
Продолжительность                        : 1 ч. 46 м.
Вид битрейта                             : Постоянный
Битрейт                                  : 1509 Кбит/сек
Каналы                                   : 6 каналов
Расположение каналов                     : Front: L C R, Side: L R, LFE
Частота                                  : 48,0 КГц
Битовая глубина                          : 24 бит
Метод сжатия                             : С потерями
Размер потока                            : 1,12 Гбайт (9%)
Язык                                     : English
Default                                  : Нет
Forced                                   : Нет
Текст #1
Идентификатор                            : 4
Формат                                   : UTF-8
Идентификатор кодека                     : S_TEXT/UTF8
Идентификатор кодека/Информация          : UTF-8 Plain Text
Язык                                     : English
Default                                  : Нет
Forced                                   : Нет
Текст #2
Идентификатор                            : 5
Формат                                   : UTF-8
Идентификатор кодека                     : S_TEXT/UTF8
Идентификатор кодека/Информация          : UTF-8 Plain Text
Заголовок                                : [Dr.pro]
Язык                                     : Russian
Default                                  : Нет
Forced                                   : Нет
Меню
00:00:00.000                             : :Chapter 01
00:06:50.993                             : :Chapter 02
00:10:02.059                             : :Chapter 03
00:15:42.942                             : :Chapter 04
00:20:22.804                             : :Chapter 05
00:26:18.326                             : :Chapter 06
00:35:55.444                             : :Chapter 07
00:41:18.642                             : :Chapter 08
00:47:36.854                             : :Chapter 09
00:50:22.269                             : :Chapter 10
00:56:10.825                             : :Chapter 11
01:01:59.674                             : :Chapter 12
01:06:47.211                             : :Chapter 13
01:11:37.376                             : :Chapter 14
01:17:27.225                             : :Chapter 15
01:23:44.060                             : :Chapter 16
01:27:00.798                             : :Chapter 17
01:32:14.529                             : :Chapter 18
01:38:59.767                             : :Chapter 19
01:42:05.577                             : :Chapter 20

x264 Info

x264 [info]: frame I:897 Avg QP:15.30 size:301044
x264 [info]: frame P:27996 Avg QP:18.14 size:109491
x264 [info]: frame B:124444 Avg QP:19.54 size: 58611
Other forum [Profile] [PM]
Similar theme
Forum Topic Author Torrent Replies Last Post
./templates/default/images/folder_dl.gif Техническая и научно-популярная литература В.Б. Атабеков | Заземляющие устройства электрических сетей и подстанций (1967) [PDF] UndegraundMen
0 | 1

0 | 807

3

2013-11-28 23:07
UndegraundMen Latest
Display posts from previous:    
Reply to topic

The time now is: Today 11:49

All times are GMT + 3 Hours



You cannot post new topics in this forum
You cannot reply to topics in this forum
You cannot edit your posts in this forum
You cannot delete your posts in this forum
You cannot vote in polls in this forum
You cannot attach files in this forum
You cannot download files in this forum