Today is a free download without charge Download

Бестолковые / Clueless (Эми Хекерлинг / Amy Heckerling) [1995, США, мелодрама, комедия, BDRip 1080p] MVO (Премьер) + DVO (СТС) + AVO (Ю. Живов) + Original Eng + Sub Eng

Reply to topic
 
Author
Message

Omen ®

Longevity: 8 years 5 months

Posts: 181087

Торрент-статистика

Post 18-Apr-2013 20:06

[Quote]

Бестолковые / Clueless «Sex. Clothes. Popularity. Whatever.» Год выпуска: 1995
Страна: США
Жанр: мелодрама, комедия
Продолжительность: 01:37:13
Перевод 1: Профессиональный (многоголосый закадровый) Премьер
Перевод 2: Профессиональный (двухголосый закадровый) СТС
Перевод 3: Авторский (одноголосый закадровый) Юрий Живов
Оригинальная аудиодорожка: Английская
Субтитры: Английские (Full)
Студия: Paramount Pictures
Режиссёр: Эми Хекерлинг / Amy Heckerling
В ролях: Алисия Сильверстоун, Стейси Дэш, Бриттани Мерфи, Пол Радд, Дональд Фэйсон, Элиза Донован, Брекин Мейер, Джереми Систо, Дэн Хедайя, Уоллес Шоун и др.
Описание: Папа-адвокат получает 500 долларов в час за то, что ругается с клиентами. Его дочь выбирает одежду для школы по компьютеру - богата. Ее подруга Дионн устраивает на голове сооружения, выполняющие функции головного убора при полном отсутствии головного мозга. У всех школьников пэйджеры и мобильные телефоны.
Представляете, каково приходится их бедным, низкооплачиваемым учителям! Проникнувшись участием к своему лысому, очкастому, немолодому, но милому и доброму учителю, наша героиня решила привнести радость в его жизнь, завязав роман между ним и самой подходящей для этого учительницей той же школы.
Для этого она написала этой скромной мышке любовное письмо от его имени, а ему от ее имени сделала несколько комплиментов относительно его интеллекта. Девочка она не злая, но и не ангел, хотя ей страшно хочется делать добро окружающим.
  • Кинопоиск
  • IMDB
  • Blu-ray.com
  • Сэмпл
    Качество: BDRip 1080p
    Контейнер: MKV
    Видео кодек: MPEG-4 AVC Video
    Аудио кодек: Dolby Digital Audio / DTS Audio
    Видео: MPEG-4 AVC Video / 18348 kbps / 1920x1080p / 23,976 fps / 16:9 / 0.369 bit/pix / [email protected]
    Аудио 1: Русский / Dolby Digital Audio / 2.0 / 48 kHz / 192 kbps / 16-bit / Премьер
    Аудио 2: Русский / Dolby Digital Audio / 2.0 / 48 kHz / 192 kbps / 16-bit / СТС
    Аудио 3: Русский / Dolby Digital Audio / 5.1 / 48 kHz / 384 kbps / 16-bit / Юрий Живов
    Аудио 4: English / DTS Audio / 5.1 / 48 kHz / 1536 kbps / 24-bit / Оригинал
    Навигация по главам: да
Цитата:
Thx Diablo за проделанную над дорогами работу.

Скриншот с названием фильма

Скриншоты

MediaInfo

C:\/*spam*/\Бестолковые (Clueless) 1995, США, мелодрама, комедия, BDRip 1080p GORESEWAGE.mkv
General
Unique ID : 182210279516206386999111340485421696632 (0x89146C60A2B9FD869406FADBB52A0678)
Complete name : C:\/*spam*/\Бестолковые (Clueless) 1995, США, мелодрама, комедия, BDRip 1080p GORESEWAGE.mkv
Format : Matroska
Format version : Version 4 / Version 2
File size : 14.0 GiB
Duration : 1h 37mn
Overall bit rate : 20.6 Mbps
Movie name : GORESEWAGE
Encoded date : UTC 2013-04-18 09:01:38
Writing application : mkvmerge v6.0.0 ('Coming Up For Air') built on Jan 20 2013 09:52:00
Writing library : libebml v1.3.0 + libmatroska v1.4.0
Video #1
ID : 1
Format : AVC
Format/Info : Advanced Video Codec
Format profile : [email protected]
Format settings, CABAC : Yes
Format settings, ReFrames : 4 frames
Codec ID : V_MPEG4/ISO/AVC
Bit rate : 18.3 Mbps
Width : 1 920 pixels
Height : 1 080 pixels
Display aspect ratio : 16:9
Frame rate mode : Variable
Original frame rate : 23.976 fps
Color space : YUV
Chroma subsampling : 4:2:0
Bit depth : 8 bits
Scan type : Progressive
Bits/(Pixel*Frame) : 0.369
Title : GORESEWAGE
Writing library : x264 core 122 r2184 5c85e0a
Encoding settings : cabac=1 / ref=4 / deblock=1:-2:-2 / analyse=0x3:0x133 / me=umh / subme=11 / psy=1 / psy_rd=1.00:0.00 / mixed_ref=1 / me_range=32 / chroma_me=1 / trellis=2 / 8x8dct=1 / cqm=0 / deadzone=21,11 / fast_pskip=0 / chroma_qp_offset=-2 / threads=6 / sliced_threads=0 / nr=0 / decimate=0 / interlaced=0 / bluray_compat=0 / constrained_intra=0 / bframes=8 / b_pyramid=2 / b_adapt=2 / b_bias=0 / direct=3 / weightb=1 / open_gop=0 / weightp=2 / keyint=250 / keyint_min=23 / scenecut=40 / intra_refresh=0 / rc=2pass / mbtree=0 / bitrate=18348 / ratetol=1.0 / qcomp=0.60 / qpmin=0 / qpmax=69 / qpstep=4 / cplxblur=20.0 / qblur=0.5 / ip_ratio=1.40 / pb_ratio=1.30 / aq=2:1.00
Language : English
Default : Yes
Forced : No
Audio #2
ID : 2
Format : AC-3
Format/Info : Audio Coding 3
Mode extension : CM (complete main)
Format settings, Endianness : Big
Codec ID : A_AC3
Duration : 1h 37mn
Bit rate mode : Constant
Bit rate : 192 Kbps
Channel(s) : 2 channels
Channel positions : Front: L R
Sampling rate : 48.0 KHz
Bit depth : 16 bits
Compression mode : Lossy
Stream size : 134 MiB (1%)
Title : Профессиональный (многоголосый закадровый) Премьер
Language : Russian
Default : Yes
Forced : No
Audio #3
ID : 3
Format : AC-3
Format/Info : Audio Coding 3
Mode extension : CM (complete main)
Format settings, Endianness : Big
Codec ID : A_AC3
Duration : 1h 37mn
Bit rate mode : Constant
Bit rate : 192 Kbps
Channel(s) : 2 channels
Channel positions : Front: L R
Sampling rate : 48.0 KHz
Bit depth : 16 bits
Compression mode : Lossy
Stream size : 134 MiB (1%)
Title : Профессиональный (двухголосый закадровый) СТС
Language : Russian
Default : No
Forced : No
Audio #4
ID : 4
Format : AC-3
Format/Info : Audio Coding 3
Mode extension : CM (complete main)
Format settings, Endianness : Big
Codec ID : A_AC3
Duration : 1h 37mn
Bit rate mode : Constant
Bit rate : 384 Kbps
Channel(s) : 6 channels
Channel positions : Front: L C R, Side: L R, LFE
Sampling rate : 48.0 KHz
Bit depth : 16 bits
Compression mode : Lossy
Stream size : 267 MiB (2%)
Title : Авторский (одноголосый закадровый) Юрий Живов
Language : Russian
Default : No
Forced : No
Audio #5
ID : 5
Format : DTS
Format/Info : Digital Theater Systems
Codec ID : A_DTS
Duration : 1h 37mn
Bit rate mode : Constant
Bit rate : 1 510 Kbps
Channel(s) : 6 channels
Channel positions : Front: L C R, Side: L R, LFE
Sampling rate : 48.0 KHz
Bit depth : 24 bits
Compression mode : Lossy
Stream size : 1.03 GiB (7%)
Title : Оригинал
Language : English
Default : No
Forced : No
Text #6
ID : 6
Format : UTF-8
Codec ID : S_TEXT/UTF8
Codec ID/Info : UTF-8 Plain Text
Title : Full
Language : English
Default : No
Forced : No
Menu
00:00:00.000 : en:00:00:00.000
00:02:57.761 : en:00:02:57.761
00:07:21.900 : en:00:07:21.900
00:10:05.313 : en:00:10:05.313
00:20:36.527 : en:00:20:36.527
00:26:16.825 : en:00:26:16.825
00:31:26.259 : en:00:31:26.259
00:39:33.663 : en:00:39:33.663
00:44:59.822 : en:00:44:59.822
00:51:05.437 : en:00:51:05.437
01:01:01.992 : en:01:01:01.992
01:11:08.139 : en:01:11:08.139
01:19:55.958 : en:01:19:55.958
01:26:43.448 : en:01:26:43.448
01:32:38.386 : en:01:32:38.386

Полноразмерный постер

Other forum [Profile] [PM]
Display posts from previous:    
Reply to topic

The time now is: Today 09:41

All times are GMT + 3 Hours



You cannot post new topics in this forum
You cannot reply to topics in this forum
You cannot edit your posts in this forum
You cannot delete your posts in this forum
You cannot vote in polls in this forum
You cannot attach files in this forum
You cannot download files in this forum