Today is a free download without charge Download

Тайна перевала Дятлова / The Dyatlov Pass Incident ( Ренни Харлин ) (2013, Триллер, ужасы, фантастика ) BDRip [720p]

Reply to topic
 
Author
Message

Витек1 ®

Gender:

Longevity: 8 years 3 months

Posts: 451

Location: Житомир

Торрент-статистика

Post 18-Apr-2013 16:47

[Quote]

Тайна перевала Дятлова / The Dyatlov Pass Incident - Русское название: Тайна перевала Дятлова
Оригинальное название: The Dyatlov Pass Incident
Год выпуска: 2013
Производство: Aldamisa Entertainment / Future Films / Midnight Sun Pictures / K. JAM Media / Нон-стоп Продакшн [Россия, США]
Жанр: Триллер, ужасы, фантастика
Перевод: Многоголосый закадровый, профессиональный [лицензия]
Субтитры: Отсутствуют
Режиссер: Ренни Харлин
Актеры: Холли Госс, Мэтт Стокоу, Люк Олбрайт, Джемма Аткинсон, Райан Хоули, Николай Бутенин, Ричард Рейд, Анастасия Бурдина, Валерия Федорович, Нелли Нилсен
Описание фильма:
Сюжет фильма основан на реальных событиях, произошедших в 1959-м году. В 2012-м году группа американских студентов, получив грант, отправляется на уральские горы, следуя тем же маршрутом, что и группа Дятлова, чтобы попытаться восстановить картину и разгадать причину таинственной, мистической и до сих пор не разгаданной гибели советских лыжников.
Дата мировой премьеры: 28 февраля 2013
Дата российской премьеры: 28 февраля 2013, «20 Век Фокс СНГ», «A Company»
Дата выхода DVD релиза: 22 апреля 2013, «Новый Диск»
Дата выхода Blu-Ray релиза: 22 апреля 2013, «Новый Диск»
Рейтинг R - Детям до 17 лет обязательно присутствие родителей
Возраст 16+ - Зрителям, достигшим 16 лет Продолжительность: 01:40:24
Качество видео: BDRip [IronClub]
Видео: MPEG4_AVC/H.264, 1280x720, ~ 7632 kbps, 24 fps
Аудио: DTS 5.1, 768 kbps [Русский]

MediaInfo...

Полное имя : D:\Тайна.перевала.Дятлова-The.Dyatlov.Pass.Incident.(2013).BDRip.[720p].mkv
Формат : Matroska
Версия формата : Version 4 / Version 2
Размер файла : 6,00 Гбайт
Продолжительность : 1 ч. 40 м.
Общий поток : 8557 Кбит/сек
Название фильма : IRONCLUB
Дата кодирования : UTC 2013-04-19 04:20:20
Программа кодирования : mkvmerge v6.1.0 ('Old Devil') built on Mar 2 2013 14:32:37
Библиотека кодирования : libebml v1.3.0 + libmatroska v1.4.0
Видео
Идентификатор : 1
Формат : AVC
Формат/Информация : Advanced Video Codec
Профиль формата : [url=mailto:[email protected]][email protected][/url]
Параметр CABAC формата : Да
Параметр ReFrames формата : 9 кадров
Идентификатор кодека : V_MPEG4/ISO/AVC
Продолжительность : 1 ч. 40 м.
Битрейт : 7632 Кбит/сек
Ширина : 1280 пикселей
Высота : 720 пикселей
Соотношение сторон : 16:9
Режим частоты кадров : Постоянный
Частота кадров : 24,000 кадра/сек
Цветовое пространство : YUV
Субдискретизация насыщенности : 4:2:0
Битовая глубина : 8 бит
Тип развёртки : Прогрессивная
Бит/(Пиксели*Кадры) : 0.345
Размер потока : 5,35 Гбайт (89%)
Заголовок : Tajna perevala Djatlova 2013 720p BluRay DTS x264-IRONCLUB
Библиотека кодирования : x264 core 130 r2273 b3065e6
Настройки программы : cabac=1 / ref=9 / deblock=1:-3:-3 / analyse=0x3:0x113 / me=umh / subme=11 / psy=1 / psy_rd=1.05:0.00 / mixed_ref=1 / me_range=32 / chroma_me=1 / trellis=2 / 8x8dct=1 / cqm=0 / deadzone=21,11 / fast_pskip=0 / chroma_qp_offset=-2 / threads=12 / lookahead_threads=2 / sliced_threads=0 / nr=0 / decimate=1 / interlaced=0 / bluray_compat=0 / constrained_intra=0 / bframes=8 / b_pyramid=2 / b_adapt=2 / b_bias=0 / direct=3 / weightb=1 / open_gop=0 / weightp=2 / keyint=250 / keyint_min=23 / scenecut=40 / intra_refresh=0 / rc_lookahead=60 / rc=crf / mbtree=1 / crf=16.8 / qcomp=0.70 / qpmin=0 / qpmax=69 / qpstep=4 / vbv_maxrate=50000 / vbv_bufsize=62500 / crf_max=0.0 / nal_hrd=none / ip_ratio=1.30 / aq=1:0.85
Язык : English
Default : Да
Forced : Да
Коэффициенты матрицы : BT.709
Аудио
Идентификатор : 2
Формат : DTS
Формат/Информация : Digital Theater Systems
Идентификатор кодека : A_DTS
Продолжительность : 1 ч. 40 м.
Вид битрейта : Постоянный
Битрейт : 755 Кбит/сек
Каналы : 6 каналов
Расположение каналов : Front: L C R, Side: L R, LFE
Частота : 48,0 КГц
Битовая глубина : 24 бит
Метод сжатия : С потерями
Размер потока : 542 Мбайт (9%)
Заголовок : DTS 5.1 @ 768 kbps - MVO, BD RUS
Язык : Russian
Default : Да
Forced : Да
Меню
00:00:00.000 : ru:00:00:00.000
00:00:00.333 : ru:00:00:00.333
00:01:39.166 : ru:00:01:39.166
00:16:14.416 : ru:00:16:14.416
00:29:49.291 : ru:00:29:49.291
00:41:49.750 : ru:00:41:49.750
00:54:19.625 : ru:00:54:19.625
01:07:26.458 : ru:01:07:26.458
01:19:31.166 : ru:01:19:31.166
01:30:32.750 : ru:01:30:32.750
Скриншоты:
       
       

_________________
Скачал сам, дай скачать другому!!!Не забудь сказать -
Other forum [Profile] [PM]

Dracula

Longevity: 7 years 5 months

Posts: 11215

Торрент-статистика

Post 02-Jan-2014 15:52 (after 8 months 13 days)

Топик был перенесен из форума Новинки (DVD, HD Video) в форум Зарубежное кино (HD Video)


kogesan
 
Similar theme
Forum Topic Author Torrent Replies Last Post
./templates/default/images/folder_dl.gif Приключения и квесты Mystery Trackers: Blackrow\'s Secret Collector\'s Edition / Охотники за тайнами. Загадка рода Блэкроу. Коллекционное издание [P] [RUS / ENG] (2014) Omen
1 | 0

0 | 2602

27

2015-06-06 00:09
Omen Latest
Display posts from previous:    
Reply to topic

The time now is: Today 13:57

All times are GMT + 3 Hours



You cannot post new topics in this forum
You cannot reply to topics in this forum
You cannot edit your posts in this forum
You cannot delete your posts in this forum
You cannot vote in polls in this forum
You cannot attach files in this forum
You cannot download files in this forum