Today is a free download without charge Download

Земля снежного человека / Bigfoot County / The Bigfoot Tapes (Стефон Стюарт / Stephon Stewart) [2012, США, ужасы, триллер, детектив, Web-DL 720p] VO (den904) + Original (Eng) + Sub (Eng)

Reply to topic
 
Author
Message

Omen ®

Longevity: 8 years 5 months

Posts: 181087

Торрент-статистика

Post 18-Apr-2013 07:48

[Quote]

Земля снежного человека / Bigfoot County / The Bigfoot Tapes Страна: США
Студия: DragonGate Films, You Wanna Do This or Not Prods.
Жанр: ужасы, триллер, детектив
Год выпуска: 2012
Продолжительность: 01:21:29
Перевод: Одноголосый закадровый den904
Cубтитры: английские
Оригинальная аудиодорожка: английская
Режиссер: Стефон Стюарт / Stephon Stewart
В ролях: Стефон Стюарт, Davee Youngblood, Шай Пилгрин, Сэм Эйерс, Дон Скрибнер, Брэд С. Клэйтон, Майкл Виллар, Джои Наполи, Джонни Колтер, Kyle Quinn
Описание:
Два брата в компании подруги и видеокамеры отправляются в калифорнийские леса на поиски снежного человека, к месту обитания которого их обещает отвести не совсем адекватный проводник.
- || -Тип релиза: Web-DL 720p
Контейнер: MKV
Видео: AVC (x264), 1280x712 (16:9) at 23,976 fps, 3993 Кbps, 0.183 bpp
Аудио 1: AC3; 448 Kbps; CBR; 6 ch; 48 khz | VO - den904 |
Аудио 2: AC3; 448 Kbps; CBR; 6 ch; 48 khz | Английский |
Формат субтитров: softsub (SRT)

Скриншоты || x264 Info || MediaInfo || Notes

Notes:

Цитата:
  • Оригинальная аудио дорожка взята с Bigfoot.County.2012.NTSC.DVDR-occult-Для модераторов:
    может, показаться что оригинальная дорожка дутая... но это не так: звук центра отличается от других каналов.
    вот, полный скрин звука

MediaInfo

Код:
Общее
Уникальный идентификатор                 : 223341386513738064291636943474347493151 (0xA805FC856AAC5DB9B16A4DF39328471F)
Полное имя                               : Земля снежного человека.2012.L1.720p.WEB-DL.x264-NGB.mkv
Формат                                   : Matroska
Версия формата                           : Version 4 / Version 2
Размер файла                             : 2,86 Гбайт
Продолжительность                        : 1 ч. 21 м.
Общий поток                              : 4988 Кбит/сек
Название фильма                          : profile.php?mode=viewprofile&u=22488948
Дата кодирования                         : UTC 2013-04-14 12:37:46
Программа кодирования                    : mkvmerge v6.1.0 ('Old Devil') built on Mar  2 2013 14:32:37
Библиотека кодирования                   : libebml v1.3.0 + libmatroska v1.4.0
Видео
Идентификатор                            : 1
Формат                                   : AVC
Формат/Информация                        : Advanced Video Codec
Профиль формата                          : [email protected]
Параметр CABAC формата                   : Нет
Параметр ReFrames формата                : 2 кадра
Идентификатор кодека                     : V_MPEG4/ISO/AVC
Продолжительность                        : 1 ч. 21 м.
Битрейт                                  : 3993 Кбит/сек
Ширина                                   : 1280 пикселей
Высота                                   : 712 пикселей
Соотношение сторон                       : 16:9
Режим частоты кадров                     : Постоянный
Частота кадров                           : 23,976 кадра/сек
Цветовое пространство                    : YUV
Субдискретизация насыщенности            : 4:2:0
Битовая глубина                          : 8 бит
Тип развёртки                            : Прогрессивная
Бит/(Пиксели*Кадры)                      : 0.183
Размер потока                            : 2,29 Гбайт (80%)
Язык                                     : English
Default                                  : Да
Forced                                   : Нет
Основные цвета                           : BT.709
Характеристики трансфера                 : BT.709
Коэффициенты матрицы                     : BT.709
Аудио #1
Идентификатор                            : 2
Формат                                   : AC-3
Формат/Информация                        : Audio Coding 3
Расширение режима                        : CM (complete main)
Параметр Endianness формата              : Big
Идентификатор кодека                     : A_AC3
Продолжительность                        : 1 ч. 21 м.
Вид битрейта                             : Постоянный
Битрейт                                  : 448 Кбит/сек
Каналы                                   : 6 каналов
Расположение каналов                     : Front: L C R, Side: L R, LFE
Частота                                  : 48,0 КГц
Битовая глубина                          : 16 бит
Метод сжатия                             : С потерями
Размер потока                            : 263 Мбайт (9%)
Заголовок                                : VO [den904]
Язык                                     : Russian
Default                                  : Да
Forced                                   : Нет
Аудио #2
Идентификатор                            : 3
Формат                                   : AC-3
Формат/Информация                        : Audio Coding 3
Расширение режима                        : CM (complete main)
Параметр Endianness формата              : Big
Идентификатор кодека                     : A_AC3
Продолжительность                        : 1 ч. 21 м.
Вид битрейта                             : Постоянный
Битрейт                                  : 448 Кбит/сек
Каналы                                   : 6 каналов
Расположение каналов                     : Front: L C R, Side: L R, LFE
Частота                                  : 48,0 КГц
Битовая глубина                          : 16 бит
Метод сжатия                             : С потерями
Размер потока                            : 263 Мбайт (9%)
Язык                                     : English
Default                                  : Нет
Forced                                   : Нет
Текст
Идентификатор                            : 4
Формат                                   : UTF-8
Идентификатор кодека                     : S_TEXT/UTF8
Идентификатор кодека/Информация          : UTF-8 Plain Text
Язык                                     : English
Default                                  : Нет
Forced                                   : Нет
Меню
00:00:00.000                             : en:Chapter 1
00:09:16.000                             : en:Chapter 2
00:15:19.000                             : en:Chapter 3
00:23:21.000                             : en:Chapter 4
00:36:56.000                             : en:Chapter 5
00:46:01.000                             : en:Chapter 6
00:56:24.000                             : en:Chapter 7
01:05:12.000                             : en:Chapter 8
01:13:41.000                             : en:Chapter 9
01:20:25.000                             : en:Chapter 10
Other forum [Profile] [PM]
Similar theme
Forum Topic Author Torrent Replies Last Post
./templates/default/images/folder_dl.gif Техническая и научно-популярная литература В.Б. Атабеков | Заземляющие устройства электрических сетей и подстанций (1967) [PDF] UndegraundMen
0 | 1

0 | 820

3

2013-11-28 23:07
UndegraundMen Latest
Display posts from previous:    
Reply to topic

The time now is: Today 01:12

All times are GMT + 3 Hours



You cannot post new topics in this forum
You cannot reply to topics in this forum
You cannot edit your posts in this forum
You cannot delete your posts in this forum
You cannot vote in polls in this forum
You cannot attach files in this forum
You cannot download files in this forum