Today is a free download without charge Download

Черное золото / Black Gold (Жан-Жак Анно / Jean-Jacques Annaud) [2011, Франция, Италия, Тунис, Катар, драма, BDRip 720p] Dub, AVO [Ю.Немахов], DVO [1+1] Sub (rus, eng) + Original Eng

Reply to topic
 
Author
Message

Omen ®

Longevity: 8 years 5 months

Posts: 181087

Торрент-статистика

Post 18-Apr-2013 07:48

[Quote]

Черное золото / Black Gold
Страна: Франция, Италия, Тунис, Катар
Жанр: драма
Год выпуска: 2011
Продолжительность: 02:10:12-Перевод: Профессиональный (дублированный) [Лицензия]
Перевод: Авторский (одноголосый закадровый) [Ю.Немахов]
Перевод: Профессиональный (двухголосый закадровый) [1+1]
Cубтитры: Russian (full, forced), English
Оригинальная аудиодорожка: английский-Режиссер: Жан-Жак Анно / Jean-Jacques Annaud
В ролях: Тахар Рахим, Антонио Бандерас, Марк Стронг, Фрида Пинто, Риз Ахмед, Лотфи Дзири, Эрик Эбони, Акин Гази
Описание: События картины разворачиваются где-то на Аравийском полуострове в начале XX века, в тяжелый период многочисленных распрей между большим количеством мелких султанатов, примерно в то время, когда там была обнаружена нефть. В сюжете переплелись борьба за власть, религия, нефтяная лихорадка и, конечно же, любовь.-Сэмпл | kinopoisk | imdb-Качество видео: BDRip720р [HDChina]
Формат видео: MKV-Видео: AVC, (2.35:1), 1280x546, 23.976 fps, 5705 kb/s
Аудио: DTS, 48.0 KHz, 24 bits, 775 Kbps, 6 channels Front (L C R) Side (L R) [Rus Dub]
Аудио: DTS, 48.0 KHz, 24 bits, 775 Kbps, 6 channels Front (L C R) Side (L R) [Rus Ю.Немахов]
Аудио: AC3, 48.0 KHz, 16 bits, 192 Kbps, 2 channels Front (L R) [1+1]
Аудио: DTS, 48.0 KHz, 24 bits, 775 Kbps, 6 channels Front (L C R) Side (L R) [Eng]
Формат субтитров: softsub (SRT)-Большое спасибо: за исходник, и за озвучку Ю.Немахова
Голос Ю.Немахова выкуплен в рамках проекта "Озвучивание". Спонсоры: vasiliev, Loki1982, Кириллка, Dervish, Turko, alexdeath.
За укр. дорогу запис з ТБ подяка ratbol'у та MAKAPOHHIKу, Віктору, Delight

MediaInfo

General
Unique ID : 183922552993983952635328771210126131197 (0x8A5E31FA53885710A55B5763AEFD7FFD)
Complete name : D:\Downloads\Black.Gold.2011.720p.mkv
Format : Matroska
Format version : Version 4 / Version 2
File size : 7.44 GiB
Duration : 2h 10mn
Overall bit rate : 8 175 Kbps
Encoded date : UTC 2013-04-17 20:41:46
Writing application : mkvmerge v6.1.0 ('Old Devil') built on Mar 2 2013 14:32:37
Writing library : libebml v1.3.0 + libmatroska v1.4.0
Video
ID : 1
Format : AVC
Format/Info : Advanced Video Codec
Format profile : [email protected]
Format settings, CABAC : Yes
Format settings, ReFrames : 11 frames
Codec ID : V_MPEG4/ISO/AVC
Duration : 2h 10mn
Bit rate : 5 705 Kbps
Width : 1 280 pixels
Height : 546 pixels
Display aspect ratio : 2.35:1
Frame rate mode : Constant
Frame rate : 23.976 fps
Color space : YUV
Chroma subsampling : 4:2:0
Bit depth : 8 bits
Scan type : Progressive
Bits/(Pixel*Frame) : 0.340
Stream size : 5.04 GiB (68%)
Title : Черное золото / Black Gold
Writing library : x264 core 120 r2164 da19765
Encoding settings : cabac=1 / ref=11 / deblock=1:-3:-3 / analyse=0x3:0x133 / me=umh / subme=10 / psy=1 / psy_rd=1.00:0.00 / mixed_ref=1 / me_range=32 / chroma_me=1 / trellis=2 / 8x8dct=1 / cqm=0 / deadzone=21,11 / fast_pskip=1 / chroma_qp_offset=-2 / threads=12 / sliced_threads=0 / nr=0 / decimate=0 / interlaced=0 / bluray_compat=0 / constrained_intra=0 / bframes=7 / b_pyramid=2 / b_adapt=2 / b_bias=0 / direct=3 / weightb=1 / open_gop=0 / weightp=2 / keyint=250 / keyint_min=23 / scenecut=40 / intra_refresh=0 / rc_lookahead=60 / rc=2pass / mbtree=0 / bitrate=5705 / ratetol=1.0 / qcomp=0.60 / qpmin=0 / qpmax=69 / qpstep=4 / cplxblur=20.0 / qblur=0.5 / vbv_maxrate=30000 / vbv_bufsize=30000 / nal_hrd=none / ip_ratio=1.50 / pb_ratio=1.30 / aq=1:1.00
Language : English
Default : Yes
Forced : No
Audio #1
ID : 2
Format : DTS
Format/Info : Digital Theater Systems
Mode : 16
Format settings, Endianness : Big
Codec ID : A_DTS
Duration : 2h 10mn
Bit rate mode : Constant
Bit rate : 768 Kbps
Channel(s) : 6 channels
Channel positions : Front: L C R, Side: L R, LFE
Sampling rate : 48.0 KHz
Bit depth : 24 bits
Compression mode : Lossy
Stream size : 715 MiB (9%)
Title : Дубляж лицензия, DTS 48/24 755 Kbps 5.1
Language : Russian
Default : Yes
Forced : No
Audio #2
ID : 3
Format : DTS
Format/Info : Digital Theater Systems
Mode : 16
Format settings, Endianness : Big
Codec ID : A_DTS
Duration : 2h 10mn
Bit rate mode : Constant
Bit rate : 755 Kbps
Channel(s) : 6 channels
Channel positions : Front: L C R, Side: L R, LFE
Sampling rate : 48.0 KHz
Bit depth : 24 bits
Compression mode : Lossy
Stream size : 703 MiB (9%)
Title : Авторский одноголосый закадровый (Ю.Немахов), DTS 48/24 755 Kbps 5.1
Language : Russian
Default : No
Forced : No
Audio #3
ID : 4
Format : AC-3
Format/Info : Audio Coding 3
Mode extension : CM (complete main)
Format settings, Endianness : Big
Codec ID : A_AC3
Duration : 2h 10mn
Bit rate mode : Constant
Bit rate : 192 Kbps
Channel(s) : 2 channels
Channel positions : Front: L R
Sampling rate : 48.0 KHz
Bit depth : 16 bits
Compression mode : Lossy
Stream size : 179 MiB (2%)
Title : Профессиональный двухголосый закадровый (1+1) AC3 48/16 192 Kbps 2.0
Language : Ukrainian
Default : No
Forced : No
Audio #4
ID : 5
Format : DTS
Format/Info : Digital Theater Systems
Mode : 16
Format settings, Endianness : Big
Codec ID : A_DTS
Duration : 2h 10mn
Bit rate mode : Constant
Bit rate : 755 Kbps
Channel(s) : 6 channels
Channel positions : Front: L C R, Side: L R, LFE
Sampling rate : 48.0 KHz
Bit depth : 24 bits
Compression mode : Lossy
Stream size : 703 MiB (9%)
Title : Английский оригинал, DTS 48/24 755 Kbps 5.1
Language : English
Default : No
Forced : No
Text #1
ID : 6
Format : UTF-8
Codec ID : S_TEXT/UTF8
Codec ID/Info : UTF-8 Plain Text
Title : forced
Language : Russian
Default : Yes
Forced : No
Text #2
ID : 7
Format : UTF-8
Codec ID : S_TEXT/UTF8
Codec ID/Info : UTF-8 Plain Text
Title : full
Language : Russian
Default : No
Forced : No
Text #3
ID : 8
Format : UTF-8
Codec ID : S_TEXT/UTF8
Codec ID/Info : UTF-8 Plain Text
Title : Субтитры
Language : English
Default : No
Forced : No

Скриншоты

Other forum [Profile] [PM]
Similar theme
Forum Topic Author Torrent Replies Last Post
./templates/default/images/folder_dl.gif Техническая и научно-популярная литература А. Железный | Атлантида покоится на дне Чёрного моря [2008] [PDF] sashau
1 | 0

0 | 1063

0

2013-01-24 14:39
sashau Latest
./templates/default/images/folder_dl.gif Техническая и научно-популярная литература Г.Джонсон, М.Грэхем | Конструирование высокоскоростных цифровых устройств. Начальный курс черной магии [2006] [DJVU] UndegraundMen
1 | 0

0 | 535

2

2013-06-30 11:56
UndegraundMen Latest
./templates/default/images/folder_dl.gif Фантастика, фэнтези, ужасы, мистика Виктор Лебедев | Метро 2035: Черноморье (2019) [FB2] }{@R0N
1 | 0

0 | 1078

0

2019-04-01 18:12
}{@R0N Latest
Display posts from previous:    
Reply to topic

The time now is: Today 12:41

All times are GMT + 3 Hours



You cannot post new topics in this forum
You cannot reply to topics in this forum
You cannot edit your posts in this forum
You cannot delete your posts in this forum
You cannot vote in polls in this forum
You cannot attach files in this forum
You cannot download files in this forum