Today is a free download without charge Download

Ароматы Западной Японии / Flavors of West Japan (2007) HDTV [H.264/1080i]

Reply to topic
 
Author
Message

UndegraundMen ®

Longevity: 7 years 7 months

Posts: 25145

Торрент-статистика

Post 18-Apr-2013 00:00

[Quote]

Ароматы Западной Японии / Flavors of West Japan (2007) HDTV [H.264/1080i]- Русское название: Ароматы Западной Японии
Оригинальное название: Flavors of West Japan
Страна: США
Режиссер / Телекомпания: Эрик Бакос / Discovery Channel
Год выпуска: 2007
Жанр: документальный
Описание: Обзорные фильмы о странах мира. Обо всем понемногу. Культура, народы, религии, география, искусства, история. Красиво и познавательно. Откройте для себя мир и почувствуйте ароматы его многообразия.-Древние традиции и современность, передовые технологии и первозданная природа сплелись воедино и составляют неповторимый аромат Западной Японии.
Продолжительность: 00:52:10
Перевод: Одноголосый закадровый (профессиональный)
Формат файла: m2ts
Видеокодек: MPEG-4 AVC/H.264
Битрейт видео: ~ 11,6 Мбит/с
Размер кадра: 1920 x 1080
Качество видео: HDTV [1080i]
Аудиокодек: AC3, 2 channels
Битрейт аудио: 192 Кбит/с

MediaInfo

Общее
Идентификатор : 0 (0x0)
Полное имя : A:\MUSOR\Flavor.of.01.West.Japan.1080i.m2ts
Формат : BDAV
Формат/Информация : Blu-ray Video
Размер файла : 4,48 Гбайт
Продолжительность : 52 м.
Общий поток : 12,3 Мбит/сек
Максимальный общий битрейт : 24,0 Мбит/сек
Видео
Идентификатор : 4113 (0x1011)
Идентификатор меню : 1 (0x1)
Формат : AVC
Формат/Информация : Advanced Video Codec
Профиль формата : [url=mailto:[email protected]][email protected][/url]
Параметр CABAC формата : Да
Параметр ReFrames формата : 3 кадра
Идентификатор кодека : 27
Продолжительность : 52 м.
Битрейт : 11,6 Мбит/сек
Ширина : 1920 пикселей
Высота : 1080 пикселей
Соотношение сторон : 16:9
Частота кадров : 25,000 кадров/сек
Стандарт вещания : Component
Цветовое пространство : YUV
Субдискретизация насыщенности : 4:2:0
Битовая глубина : 8 бит
Тип развёртки : Чересстрочная
Порядок развёртки : Верхнее поле первое
Бит/(Пиксели*Кадры) : 0.224
Размер потока : 4,23 Гбайт (94%)
Основные цвета : BT.709-5, BT.1361, IEC 61966-2-4, SMPTE RP177
Характеристики трансфера : BT.709-5, BT.1361
Коэффициенты матрицы : BT.709-5, BT.1361, IEC 61966-2-4 709, SMPTE RP177
Аудио
Идентификатор : 4352 (0x1100)
Идентификатор меню : 1 (0x1)
Формат : AC-3
Формат/Информация : Audio Coding 3
Идентификатор кодека : 129
Продолжительность : 11 с.
Битрейт : 192 Кбит/сек
Каналы : 2 канала
Частота : 48,0 КГц
Метод сжатия : С потерями
Размер потока : 276 Кбайт (0%)
Скриншоты:
         
         
Other forum [Profile] [PM]
Display posts from previous:    
Reply to topic

The time now is: Today 01:01

All times are GMT + 3 Hours



You cannot post new topics in this forum
You cannot reply to topics in this forum
You cannot edit your posts in this forum
You cannot delete your posts in this forum
You cannot vote in polls in this forum
You cannot attach files in this forum
You cannot download files in this forum