Today is a free download without charge Download

Смертельный транс / Death Trance (Юджи Симомура / Yûji Shimomura) [2005, США, Япония, фэнтези, боевик, приключения, BDRip 720p] DVO + AVO (А. Дольский) + Sub Eng

Reply to topic
 
Author
Message

Omen ®

Longevity: 8 years 5 months

Posts: 181087

Торрент-статистика

Post 17-Apr-2013 19:00

[Quote]

Смертельный транс / Death Trance
Страна: США, Япония
Жанр: фэнтези, боевик, приключения
Год выпуска: 2005
Продолжительность: 01:29:08
Перевод 1: Профессиональный (двухголосый закадровый)
Перевод 2: Авторский (одноголосый закадровый) А. Дольский
Cубтитры: английские
Оригинальная аудиодорожка: японский
Режиссер: Юджи Симомура / Yûji Shimomura
В ролях: Кэнтаро Сигал, Так Сакагучи, Такамаса Суга, Бэн Хиура, Йоко Фудзита, Хонока Асада, Юки Текучи, Чак Джонсон, Осаму Такахаши...
Описание: Мастер-самурай по прозвищу Могила выкрал шкатулку из священного Храма Тогун, в которой уже давно в заточении находится Богиня Разрушения. Он хочет выпустить ее, чтобы сразиться, но не знает как это сделать и отправляется в путешествие, чтобы найти секрет. В то время как один из монахов-послушников Храма отправляется в погоню за Могилой, чтобы вернуть реликт на место и спасти мир…
Сэмпл: http://multi-up.com/855661
Тип релиза: BDRip 720p
Контейнер: MKV
Видео: H264, 1280x656, 23.976fps, 6 570 Kbps
Аудио 1: (DVO) AC3, 48000Hz, stereo, 192 Kbps
Аудио 2: (AVO) AC3, 48000Hz, 6ch, 448 Kbps
Аудио 3: (Original) AC3, 48000Hz, stereo, 448 Kbps
Формат субтитров: softsub (SRT)

MediaInfo

Complete name : Death.Trance.2005.720p.Bluray.X264.mkv
Format : Matroska
Format version : Version 2
File size : 4.77 GiB
Duration : 1h 29mn
Overall bit rate : 7 660 Kbps
Encoded date : UTC 2013-04-15 18:11:44
Writing application : mkvmerge v4.8.0 ('I Got The...') сборка от May 24 2011 03:12:58
Writing library : libebml v1.2.0 + libmatroska v1.1.0
Video
ID : 1
Format : AVC
Format/Info : Advanced Video Codec
Format profile : [email protected]
Format settings, CABAC : Yes
Format settings, ReFrames : 5 frames
Codec ID : V_MPEG4/ISO/AVC
Duration : 1h 29mn
Bit rate : 6 570 Kbps
Width : 1 280 pixels
Height : 656 pixels
Display aspect ratio : 1.951
Frame rate mode : Constant
Frame rate : 23.976 fps
Color space : YUV
Chroma subsampling : 4:2:0
Bit depth : 8 bits
Scan type : Progressive
Bits/(Pixel*Frame) : 0.326
Stream size : 4.00 GiB (84%)
Writing library : x264 core 84 r1416 fcf70c2
Encoding settings : cabac=1 / ref=5 / deblock=1:-1:-1 / analyse=0x3:0x113 / me=esa / subme=9 / psy=1 / psy_rd=1.0:0.0 / mixed_ref=1 / me_range=16 / chroma_me=1 / trellis=1 / 8x8dct=1 / cqm=0 / deadzone=21,11 / fast_pskip=0 / chroma_qp_offset=-2 / threads=6 / sliced_threads=0 / nr=0 / decimate=1 / mbaff=0 / constrained_intra=0 / bframes=3 / b_pyramid=0 / b_adapt=1 / b_bias=0 / direct=3 / wpredb=1 / wpredp=2 / keyint=250 / keyint_min=25 / scenecut=40 / intra_refresh=0 / rc_lookahead=40 / rc=2pass / mbtree=1 / bitrate=6570 / ratetol=1.0 / qcomp=0.60 / qpmin=10 / qpmax=51 / qpstep=4 / cplxblur=20.0 / qblur=0.5 / ip_ratio=1.40 / aq=1:1.10
Language : Japanese
Default : No
Forced : No
Audio #1
ID : 2
Format : AC-3
Format/Info : Audio Coding 3
Mode extension : CM (complete main)
Format settings, Endianness : Big
Codec ID : A_AC3
Duration : 1h 29mn
Bit rate mode : Constant
Bit rate : 192 Kbps
Channel(s) : 2 channels
Channel positions : Front: L R
Sampling rate : 48.0 KHz
Bit depth : 16 bits
Compression mode : Lossy
Stream size : 122 MiB (3%)
Title : Профессиональный (двухголосый закадровый)
Language : Russian
Default : Yes
Forced : No
Audio #2
ID : 3
Format : AC-3
Format/Info : Audio Coding 3
Mode extension : CM (complete main)
Format settings, Endianness : Big
Codec ID : A_AC3
Duration : 1h 29mn
Bit rate mode : Constant
Bit rate : 448 Kbps
Channel(s) : 6 channels
Channel positions : Front: L C R, Side: L R, LFE
Sampling rate : 48.0 KHz
Bit depth : 16 bits
Compression mode : Lossy
Stream size : 286 MiB (6%)
Title : Авторский (одноголосый закадровый) [ А. Дольский ]
Language : Russian
Default : No
Forced : No
Audio #3
ID : 4
Format : AC-3
Format/Info : Audio Coding 3
Mode extension : CM (complete main)
Format settings, Endianness : Big
Codec ID : A_AC3
Duration : 1h 29mn
Bit rate mode : Constant
Bit rate : 448 Kbps
Channel(s) : 2 channels
Channel positions : Front: L R
Sampling rate : 48.0 KHz
Bit depth : 16 bits
Compression mode : Lossy
Stream size : 286 MiB (6%)
Language : Japanese
Default : No
Forced : No
Text
ID : 5
Format : UTF-8
Codec ID : S_TEXT/UTF8
Codec ID/Info : UTF-8 Plain Text
Language : English
Default : Yes
Forced : No

Скриншоты

Other forum [Profile] [PM]
Similar theme
Forum Topic Author Torrent Replies Last Post
./templates/default/images/folder_dl.gif Антология зарубежного кино Жажда смерти [Пенталогия] / Death Wish [Pentalogy] (Майкл Уиннер, Дж. Ли Томпсон, Аллан Голдштейн) [1974–1993, боевик, триллер, DVDRip] MVO, AVO, VO DED
1 | 0

1 | 3373

1

2015-11-13 22:52
DED Latest
Display posts from previous:    
Reply to topic

The time now is: Today 02:52

All times are GMT + 3 Hours



You cannot post new topics in this forum
You cannot reply to topics in this forum
You cannot edit your posts in this forum
You cannot delete your posts in this forum
You cannot vote in polls in this forum
You cannot attach files in this forum
You cannot download files in this forum